Horrible Bosses (2011) *EXTENDED 576p BDRip* - WHiiZz

Filmes lançados em 2013 e anos seguintes. / Movies launched in 2013 and following years. (Retail DVD)

Moderador: Moderador

Responder
Avatar do Utilizador
wh0p5y
eMuleCoop
eMuleCoop
Mensagens: 5185
Registado: 14 fev 2010, 10:21
Localização: Right Here

Horrible Bosses (2011) *EXTENDED 576p BDRip* - WHiiZz

Mensagem por wh0p5y » 05 out 2011, 03:41




Synopsis
Para Nick, Kurt e Dale, a única coisa que lhes tornaria os dias no trabalho mais toleráveis, seria verem os seus chefes transformados em poeira. Despedirem-se não é uma opção, e, resultado de umas bebidas a mais e de conselhos de um ex-prisioneiro, os três amigos começam a conceber um plano para se livrarem dos seus chefes... para sempre.

Nick hates his boss, mostly because he’s expected to work from before sunrise to after sunset and his boss, Mr. Harken, calls him out for being a minute late and blackmails him so he can’t quit. Dale hates his boss, Dr. Julia Harris, because she makes unwelcome sexual advances when he’s about to get married. But Dale is on that pesky list of child offenders so he can’t quit. Kurt actually likes his job and his boss, well, up until his boss dies and the boss’s coked-out, psychopathic son takes over. But who would be crazy enough to quit their jobs in such poor economic times? Instead Nick, Dale and Kurt drunkenly and hypothetically discuss how to kill their bosses, and before they know it, they’ve hired a murder consultant to help them pull off the three deeds


imdb.com
Horrible Bosses (2011)

Capa
Sinopse:Three friends conspire to murder their awful bosses when they realize they are standing in the way of their happiness.
Pontuação:6.9
Duração:106 minutos
Idioma:English
Realizador:Seth Gordon
Actores:Jason Bateman, Steve Wiebe, Kevin Spacey, Charlie Day, Lindsay Sloane
  
Fonte:http://www.imdb.com/title/tt1499658
Última Actualização:Segunda Março 12, 2018 01:37

Código: Selecionar todos

General
Complete name                    : Horrible.Bosses.(2011).EXTENDED.576p.BRRip.XviD.AC3-WHiiZz.avi
Format                           : AVI
Format/Info                      : Audio Video Interleave
Format profile                   : OpenDML
File size                        : 2.18 GiB
Duration                         : 1h 45mn
Overall bit rate                 : 2 961 Kbps
Writing application              : VirtualDubMod 1.5.10.2 (build 2540/release)
Writing library                  : VirtualDubMod build 2540/release

Video
ID                               : 0
Format                           : MPEG-4 Visual
Format profile                   : Advanced Simple@L5
Format settings, BVOP            : 2
Format settings, QPel            : No
Format settings, GMC             : No warppoints
Format settings, Matrix          : Custom
Codec ID                         : XVID
Codec ID/Hint                    : XviD
Duration                         : 1h 45mn
Bit rate                         : 2 501 Kbps
Width                            : 1 024 pixels
Height                           : 422 pixels
Display aspect ratio             : 2.40:1
Frame rate                       : 23.976 fps
Color space                      : YUV
Chroma subsampling               : 4:2:0
Bit depth                        : 8 bits
Scan type                        : Progressive
Compression mode                 : Lossy
Bits/(Pixel*Frame)               : 0.241
Stream size                      : 1.84 GiB (84%)
Writing library                  : XviD 1.2.1 (UTC 2008-12-04)

Audio
ID                               : 1
Format                           : AC-3
Format/Info                      : Audio Coding 3
Mode extension                   : CM (complete main)
Codec ID                         : 2000
Duration                         : 1h 45mn
Bit rate mode                    : Constant
Bit rate                         : 448 Kbps
Channel(s)                       : 6 channels
Channel positions                : Front: L C R, Side: L R, LFE
Sampling rate                    : 48.0 KHz
Bit depth                        : 16 bits
Compression mode                 : Lossy
Stream size                      : 338 MiB (15%)
Alignment                        : Split accross interleaves
Interleave, duration             : 42 ms (1.00 video frame)
Interleave, preload duration     : 500 ms



















ed2k: Horrible.Bosses.(2011).EXTENDED.576p.BRRip.XviD.AC3-WHiiZz.avi  [2.18 Gb]


Horrible.Bosses.(2011).EXTENDED.576p.BRRip.XviD.AC3-WHiiZz.rar
Imagem
Imagem
UPLOADER

Avatar do Utilizador
tueunos
Utilizador
Utilizador
Mensagens: 7626
Registado: 17 mai 2008, 21:31
Localização: Algures Planeta Terra

Re: Horrible Bosses (2011) *EXTENDED 576p BDRip* - WHiiZz

Mensagem por tueunos » 06 out 2011, 22:07

Legenda PT Anexada.
Imagem

"A vida é uma pedra de amolar: desgasta-nos ou afia-nos, conforme o metal de que somos feitos."

"Eu sou responsável pelo que digo, não pelo que as pessoas entendem."

Responder

Voltar para “Filmes Recentes // Recent Movies (Com Legendas/With Subtitles)”