Green Lantern (2011) *EXTENDED 576p BDRip* -WHiiZz

Filmes lançados em 2013 e anos seguintes. / Movies launched in 2013 and following years. (Retail DVD)

Moderador: Moderador

Responder
Avatar do Utilizador
wh0p5y
eMuleCoop
eMuleCoop
Mensagens: 5185
Registado: 14 fev 2010, 10:21
Localização: Right Here

Green Lantern (2011) *EXTENDED 576p BDRip* -WHiiZz

Mensagem por wh0p5y » 04 out 2011, 09:09




Synopsis
Em um universo tão vasto quanto misterioso, uma pequena mas poderosa força existe há séculos. Protetora da paz e da justiça, ela é conhecida como a Tropa dos Lanternas Verdes. Uma irmandade de guerreiros designada a manter a ordem intergaláctica, na qual cada Lanterna Verde possui um anel que lhe garante superpoderes. Porém, um novo inimigo chamado Parallax ameaça destruir o equilíbrio das forças do Universo e o destino dos guerreiros e do planeta Terra estará nas mãos do seu mais novo recruta, o primeiro humano a ser selecionado para a Tropa: Hal Jordan (Ray Reynolds). Hal é um piloto de testes talentoso e audacioso, mas os Lanternas Verdes têm pouco respeito pelos humanos, que nunca utilizaram os poderes infinitos que o anel proporciona. No entanto, Hal é obviamente a peça que faltava e, além de sua determinação e força de vontade, tem mais uma virtude que nenhum outro membro da Tropa possui: humanidade. Com o apoio de Carol Ferris (Blake Lively), sua colega de pilotagem e namorada de infância, Hal precisa aprender rapidamente a dominar seus novos poderes e encontrar a coragem para vencer seus medos, assim ele poderá provar que não só é o único capaz de derrotar Parallax como também se tornará o maior Lanterna Verde de todos.

In a universe as vast as it is mysterious, a small but powerful force has existed for millenniums. Protectors of peace and justice, they are called the Green Lantern Corps. A brotherhood of warriors formed by the different races from entire universe sworn to keep intergalactic order, each Green Lantern wears a ring that grants him superpowers. But when a new enemy called Parallax threatens to destroy the balance of power in the Universe, their fate and the fate of Earth lie in the hands of their newest recruit, the first human ever selected for the Corps: Hal Jordan.


imdb.com
Green Lantern (2011)

Capa
Sinopse:Reckless test pilot Hal Jordan is granted an alien ring that bestows him with otherworldly powers that inducts him into an intergalactic police force, the Green Lantern Corps.
Pontuação:5.6
Duração:114 minutos
Idioma:English
Realizador:Martin Campbell
Actores:Ryan Reynolds, Blake Lively, Peter Sarsgaard, Mark Strong, Tim Robbins
  
Fonte:http://www.imdb.com/title/tt1133985
Última Actualização:Segunda Março 12, 2018 08:57


Código: Selecionar todos

General
Complete name                    : Green.Lantern.(2011).EXTENDED.576p.BRRip.XviD.AC3-WHiiZz.avi
Format                           : AVI
Format/Info                      : Audio Video Interleave
Format profile                   : OpenDML
File size                        : 2.75 GiB
Duration                         : 2h 3mn
Overall bit rate                 : 3 188 Kbps
Writing application              : VirtualDubMod 1.5.10.2 (build 2540/release)
Writing library                  : VirtualDubMod build 2540/release

Video
ID                               : 0
Format                           : MPEG-4 Visual
Format profile                   : Advanced Simple@L5
Format settings, BVOP            : 2
Format settings, QPel            : No
Format settings, GMC             : No warppoints
Format settings, Matrix          : Custom
Codec ID                         : XVID
Codec ID/Hint                    : XviD
Duration                         : 2h 3mn
Bit rate                         : 2 729 Kbps
Width                            : 1 024 pixels
Height                           : 428 pixels
Display aspect ratio             : 2.40:1
Frame rate                       : 23.976 fps
Color space                      : YUV
Chroma subsampling               : 4:2:0
Bit depth                        : 8 bits
Scan type                        : Progressive
Compression mode                 : Lossy
Bits/(Pixel*Frame)               : 0.260
Stream size                      : 2.36 GiB (86%)
Writing library                  : XviD 1.2.1 (UTC 2008-12-04)

Audio
ID                               : 1
Format                           : AC-3
Format/Info                      : Audio Coding 3
Mode extension                   : CM (complete main)
Codec ID                         : 2000
Duration                         : 2h 3mn
Bit rate mode                    : Constant
Bit rate                         : 448 Kbps
Channel(s)                       : 6 channels
Channel positions                : Front: L C R, Side: L R, LFE
Sampling rate                    : 48.0 KHz
Bit depth                        : 16 bits
Compression mode                 : Lossy
Stream size                      : 396 MiB (14%)
Alignment                        : Split accross interleaves
Interleave, duration             : 42 ms (1.00 video frame)
Interleave, preload duration     : 500 ms



















ed2k: Green.Lantern.(2011).EXTENDED.576p.BRRip.XviD.AC3-WHiiZz.avi  [2.75 Gb]
Green.Lantern.(2011).EXTENDED.576p.BRRip.XviD.AC3-WHiiZz.rar
Imagem
Imagem
UPLOADER

Responder

Voltar para “Filmes Recentes // Recent Movies (Com Legendas/With Subtitles)”