Thor (2011) *576p BDRip* - WHiiZz

Filmes lançados em 2013 e anos seguintes. / Movies launched in 2013 and following years. (Retail DVD)

Moderador: Moderador

Responder
Avatar do Utilizador
wh0p5y
eMuleCoop
eMuleCoop
Mensagens: 5185
Registado: 14 fev 2010, 10:21
Localização: Right Here

Thor (2011) *576p BDRip* - WHiiZz

Mensagem por wh0p5y » 29 ago 2011, 18:09




Synopsis
No centro da história está O Poderoso Thor, um forte, porém arrogante guerreiro, cujas imprudentes atitudes reacendem um antiga guerra. Como resultado, Thor é banido para a Terra, onde é obrigado a viver entre os humanos. Quando o mais perigoso vilão do seu mundo, envia as forças das trevas para invadir o nosso planeta, Thor aprende aquilo que é necessário para ser um verdadeiro herói.

At the center of the story is The Mighty Thor, a powerful but arrogant warrior whose reckless actions reignite an ancient war. Thor is cast down to Earth and forced to live among humans as punishment. Once here, Thor learns what it takes to be a true hero when the most dangerous villain of his world sends the darkest forces of Asgard to invade Earth.


imdb.com
Thor (2011)

Capa
Sinopse:The powerful, but arrogant god Thor, is cast out of Asgard to live amongst humans in Midgard (Earth), where he soon becomes one of their finest defenders.
Pontuação:7.0
Duração:115 minutos
Idioma:English
Realizador:Kenneth Branagh
Actores:Chris Hemsworth, Natalie Portman, Tom Hiddleston, Anthony Hopkins, Stellan Skarsgård
  
Fonte:http://www.imdb.com/title/tt0800369
Última Actualização:Segunda Março 12, 2018 10:16


Código: Selecionar todos

General
Complete name                    : Thor.(2011).576p.BRRip.XviD.AC3-WHiiZz.avi
Format                           : AVI
Format/Info                      : Audio Video Interleave
Format profile                   : OpenDML
File size                        : 2.50 GiB
Duration                         : 1h 54mn
Overall bit rate                 : 3 121 Kbps
Writing application              : VirtualDubMod 1.5.10.2 (build 2540/release)
Writing library                  : VirtualDubMod build 2540/release

Video
ID                               : 0
Format                           : MPEG-4 Visual
Format profile                   : Advanced Simple@L5
Format settings, BVOP            : 2
Format settings, QPel            : No
Format settings, GMC             : No warppoints
Format settings, Matrix          : Custom
Codec ID                         : XVID
Codec ID/Hint                    : XviD
Duration                         : 1h 54mn
Bit rate                         : 2 662 Kbps
Width                            : 1 024 pixels
Height                           : 432 pixels
Display aspect ratio             : 2.35:1
Frame rate                       : 23.976 fps
Color space                      : YUV
Chroma subsampling               : 4:2:0
Bit depth                        : 8 bits
Scan type                        : Progressive
Compression mode                 : Lossy
Bits/(Pixel*Frame)               : 0.251
Stream size                      : 2.14 GiB (85%)
Writing library                  : XviD 1.2.1 (UTC 2008-12-04)

Audio
ID                               : 1
Format                           : AC-3
Format/Info                      : Audio Coding 3
Mode extension                   : CM (complete main)
Codec ID                         : 2000
Duration                         : 1h 54mn
Bit rate mode                    : Constant
Bit rate                         : 448 Kbps
Channel(s)                       : 6 channels
Channel positions                : Front: L C R, Side: L R, LFE
Sampling rate                    : 48.0 KHz
Bit depth                        : 16 bits
Compression mode                 : Lossy
Stream size                      : 368 MiB (14%)
Alignment                        : Split accross interleaves
Interleave, duration             : 42 ms (1.00 video frame)
Interleave, preload duration     : 500 ms





















ed2k: Thor.(2011).576p.BRRip.XviD.AC3-WHiiZz.avi  [2.50 Gb]
Thor.(2011).576p.BRRip.XviD.AC3-WHiiZz.rar
Imagem
Imagem
UPLOADER

Responder

Voltar para “Filmes Recentes // Recent Movies (Com Legendas/With Subtitles)”