The Beaver (2011) *576p BDRip* - WHiiZz

Filmes lançados em 2013 e anos seguintes. / Movies launched in 2013 and following years. (Retail DVD)

Moderador: Moderador

Responder
Avatar do Utilizador
wh0p5y
eMuleCoop
eMuleCoop
Mensagens: 5172
Registado: 14 fev 2010, 10:21
Localização: Right Here

The Beaver (2011) *576p BDRip* - WHiiZz

Mensagem por wh0p5y » 25 ago 2011, 09:12




Synopsis
A successful businessman and loving father finds a unique means of coping with his debilitating mental illness in this drama from director Jodie Foster. When Walter Black (Mel Gibson) finds himself stuck in a downward spiral, the chance discovery of a beat-up beaver hand puppet offers him a unique opportunity to pull himself back from the brink. By using The Beaver to speak with others, Walter develops the abilities to express the suppressed feelings that were slowly eating him away from the inside.


imdb.com
The Beaver (2011)

Capa
Sinopse:A troubled husband and executive adopts a beaver hand-puppet as his sole means of communication.
Pontuação:6.7
Duração:91 minutos
Idioma:English
Realizador:Jodie Foster
Actores:Mel Gibson, Cherry Jones, Jodie Foster, Anton Yelchin, Riley Thomas Stewart
  
Fonte:http://www.imdb.com/title/tt1321860
Última Actualização:Segunda Março 12, 2018 09:08


Código: Selecionar todos

General
Complete name                    : The.Beaver.(2011).576p.BRRip.XviD.AC3-WHiiZz.avi
Format                           : AVI
Format/Info                      : Audio Video Interleave
Format profile                   : OpenDML
File size                        : 2.00 GiB
Duration                         : 1h 30mn
Overall bit rate                 : 3 153 Kbps
Writing application              : VirtualDubMod 1.5.10.2 (build 2540/release)
Writing library                  : VirtualDubMod build 2540/release

Video
ID                               : 0
Format                           : MPEG-4 Visual
Format profile                   : Advanced Simple@L5
Format settings, BVOP            : 2
Format settings, QPel            : No
Format settings, GMC             : No warppoints
Format settings, Matrix          : Custom
Codec ID                         : XVID
Codec ID/Hint                    : XviD
Duration                         : 1h 30mn
Bit rate                         : 2 693 Kbps
Width                            : 1 024 pixels
Height                           : 428 pixels
Display aspect ratio             : 2.40:1
Frame rate                       : 23.976 fps
Color space                      : YUV
Chroma subsampling               : 4:2:0
Bit depth                        : 8 bits
Scan type                        : Progressive
Compression mode                 : Lossy
Bits/(Pixel*Frame)               : 0.256
Stream size                      : 1.71 GiB (85%)
Writing library                  : XviD 1.2.1 (UTC 2008-12-04)

Audio
ID                               : 1
Format                           : AC-3
Format/Info                      : Audio Coding 3
Mode extension                   : CM (complete main)
Codec ID                         : 2000
Duration                         : 1h 30mn
Bit rate mode                    : Constant
Bit rate                         : 448 Kbps
Channel(s)                       : 6 channels
Channel positions                : Front: L C R, Side: L R, LFE
Sampling rate                    : 48.0 KHz
Bit depth                        : 16 bits
Compression mode                 : Lossy
Stream size                      : 292 MiB (14%)
Alignment                        : Split accross interleaves
Interleave, duration             : 42 ms (1.00 video frame)
Interleave, preload duration     : 500 ms



















ed2k: The.Beaver.(2011).576p.BRRip.XviD.AC3-WHiiZz.avi  [2.00 Gb]
The.Beaver.(2011).576p.BRRip.XviD.AC3-WHiiZz.rar
Imagem
Imagem
UPLOADER

Responder

Voltar para “Filmes Recentes // Recent Movies (Com Legendas/With Subtitles)”