Captain America: The First Avenger (2011) *576p BDRip* - WHiiZz

Filmes lançados em 2013 e anos seguintes. / Movies launched in 2013 and following years. (Retail DVD)

Moderador: Moderador

Responder
Avatar do Utilizador
wh0p5y
eMuleCoop
eMuleCoop
Mensagens: 5172
Registado: 14 fev 2010, 10:21
Localização: Right Here

Captain America: The First Avenger (2011) *576p BDRip* - WHiiZz

Mensagem por wh0p5y » 17 out 2011, 11:36




Synopsis
Nascido durante a Grande Depressão, Steve Rogers foi um menino franzino numa família pobre. Horrorizado com a ascensão Nazista na Europa, o jovem decide partir para entrar para o exército. Mas, devido ter uma saúde frágil, ele é rejeitado. Mas após escutar os apelos honestos do jovem, o General Chester Phillips oferece a Rogers a oportunidade de participar da "Operação: Renascimento". Depois de semanas de testes ele recebe o soro do super-soldado e é bombardeado por raios-vita. Steve Rogers aparece então com o corpo mais perfeito que um ser humano pode ter e é submetido a intensos treinos físicos e táticos. Meses depois ele recebe a sua primeira missão como o Capitão América e, com o seu escudo indestrutível, ele parte para combater o mal sozinho e como o líder dos "Vingadores".

A brave, yet mild-mannered young soldier named Steve Rogers, volunteers to undergo a series of experiments for a US army Super Soldier program. The military succeeds in transforming him into a human weapon, but quickly decide that their Super Soldier is far too expensive a creation to risk in combat. So, they decide to put him to use as an army celebrity and parade him across Europe to boost morale by performing in USO shows for American troops. He is even given a costume that bear the colors of Old Glory for the stage. Then, when a Nazi plot reveals itself Rogers must rise up and and become the First Avenger, in order to save his country.


imdb.com
Captain America: The First Avenger (2011)

Capa
Sinopse:Steve Rogers, a rejected military soldier transforms into Captain America after taking a dose of a "Super-Soldier serum". But being Captain America comes at a price as he attempts to take down a war monger and a terrorist organization.
Pontuação:6.9
Duração:124 minutos
Idioma:English, Norwegian, French
Realizador:Joe Johnston
Actores:Chris Evans, Hayley Atwell, Sebastian Stan, Tommy Lee Jones, Hugo Weaving
  
Fonte:http://www.imdb.com/title/tt0458339
Última Actualização:Segunda Março 12, 2018 08:00


Código: Selecionar todos

General
Complete name                    : Captain.America.the.First.Avenger.(2011).576p.BDRip.AC3.XviD-WHiiZz.avi
Format                           : AVI
Format/Info                      : Audio Video Interleave
Format profile                   : OpenDML
File size                        : 2.90 GiB
Duration                         : 2h 4mn
Overall bit rate                 : 3 347 Kbps
Writing application              : VirtualDubMod 1.5.10.2 (build 2540/release)
Writing library                  : VirtualDubMod build 2540/release

Video
ID                               : 0
Format                           : MPEG-4 Visual
Format profile                   : Advanced Simple@L5
Format settings, BVOP            : 2
Format settings, QPel            : No
Format settings, GMC             : No warppoints
Format settings, Matrix          : Custom
Codec ID                         : XVID
Codec ID/Hint                    : XviD
Duration                         : 2h 4mn
Bit rate                         : 2 889 Kbps
Width                            : 1 024 pixels
Height                           : 428 pixels
Display aspect ratio             : 2.40:1
Frame rate                       : 23.976 fps
Color space                      : YUV
Chroma subsampling               : 4:2:0
Bit depth                        : 8 bits
Scan type                        : Progressive
Compression mode                 : Lossy
Bits/(Pixel*Frame)               : 0.275
Stream size                      : 2.51 GiB (86%)
Writing library                  : XviD 1.2.1 (UTC 2008-12-04)

Audio
ID                               : 1
Format                           : AC-3
Format/Info                      : Audio Coding 3
Mode extension                   : CM (complete main)
Codec ID                         : 2000
Duration                         : 2h 4mn
Bit rate mode                    : Constant
Bit rate                         : 448 Kbps
Channel(s)                       : 6 channels
Channel positions                : Front: L C R, Side: L R, LFE
Sampling rate                    : 48.0 KHz
Bit depth                        : 16 bits
Compression mode                 : Lossy
Stream size                      : 398 MiB (13%)
Alignment                        : Split accross interleaves
Interleave, duration             : 42 ms (1.00 video frame)
Interleave, preload duration     : 500 ms



















ed2k: Captain.America.the.First.Avenger.(2011).576p.BDRip.AC3.XviD-WHiiZz.avi  [2.90 Gb]
Captain.America.the.First.Avenger.(2011).576p.BDRip.AC3.XviD-WHiiZz.rar
Imagem
Imagem
UPLOADER

Responder

Voltar para “Filmes Recentes // Recent Movies (Com Legendas/With Subtitles)”