Harry Potter and the Deathly Hallows: Part 1 (2010) *BDRip* - OpeD

Filmes lançados em 2013 e anos seguintes. / Movies launched in 2013 and following years. (Retail DVD)

Moderador: Moderador

Responder
Avatar do Utilizador
wh0p5y
eMuleCoop
eMuleCoop
Mensagens: 5172
Registado: 14 fev 2010, 10:21
Localização: Right Here

Harry Potter and the Deathly Hallows: Part 1 (2010) *BDRip* - OpeD

Mensagem por wh0p5y » 30 mar 2011, 21:33




Synopsis
A Parte 1 do Capítulo Final começa com Harry, Ron e Hermione a tentarem descobrir e destruir o segredo da imortalidade de Voldemort - o Horcruxes. Sem a ajuda dos professores ou a protecção de Dumbledore, os três amigos têm de ficar juntos agora, mais do que nunca. Mas os inimigos aproximam-se... Entretanto, o mundo dos feiticeiros tornou-se um lugar perigoso para todos os que estão contra Voldemort. E os aliados deste continuam a querer o prémio mais desejado: Harry Potter. Este tem de ser entregue a Voldemort... vivo. A única esperança de Potter é encontrar o Horcruxes antes que Voldemort o encontre a ele. Mas enquanto procura por pistas, ele descobre uma lenda muito antiga - a lenda dos Talismãs da Morte. E se esta for verdadeira, pode dar a Voldemort o poder de que ele precisa...

Harry Potter and the Deathly Hallows,is a much-anticipated motion picture event to be told in two full-length parts. The long-feared war has begun and Voldemort's Death Eaters seize control of the Ministry of Magic and even Hogwarts, terrorizing and arresting anyone who might oppose them. But the one prize they still seek is the one most valuable to Voldemort: Harry Potter. Harry's only hope is to find the Horcruxes before Voldemort finds him. As he searches for clues, he uncovers the legend of the Deathly Hallows. And if the legend turns out to be true, it could give Voldemort the ultimate power he seeks. No longer just a boy, Harry Potter is drawing ever closer to the ultimate battle with Voldemort.


imdb.com
Harry Potter and the Deathly Hallows: Part 1 (2010)

Capa
Sinopse:As Harry races against time and evil to destroy the Horcruxes, he uncovers the existence of three most powerful objects in the wizarding world: the Deathly Hallows.
Pontuação:7.7
Duração:146 minutos
Idioma:English
Realizador:David Yates
Actores:Bill Nighy, Emma Watson, Richard Griffiths, Harry Melling, Daniel Radcliffe
  
Fonte:http://www.imdb.com/title/tt0926084
Última Actualização:Segunda Março 12, 2018 10:59


Código: Selecionar todos

General
      Format : AVI
      Format/Info : Audio Video Interleave
      File size : 1.40 GiB
      Duration : 2h 26mn
      Overall bit rate : 1 375 Kbps
      Writing application : VirtualDubMod 1.5.10.2 (build 2542/release)
      Writing library : VirtualDubMod build 2542/release
   Video #0
      ID : 0
      Format : MPEG-4 Visual
      Format profile : AdvancedSimple@L5
      Format settings, BVOP : Yes
      Format settings, QPel : No
      Format settings, GMC : No warppoints
      Format settings, Matrix : Custom
      Muxing mode : Packed bitstream
      Codec ID : XVID
      Codec ID/Hint : XviD
      Duration : 2h 26mn
      Bit rate : 1 238 Kbps
      Width : 672 pixels
      Height : 288 pixels
      Display aspect ratio : 2.35:1
      Frame rate : 23.976 fps
      Resolution : 24 bits
      Colorimetry : 4:2:0
      Scan type : Progressive
      Bits/(Pixel*Frame) : 0.267
      Stream size : 1.26 GiB (90%)
      Writing library : XviD 1.1.2 (UTC 2006-11-01)
   Audio #1
      ID : 1
      Format : MPEG Audio
      Format version : Version 1
      Format profile : Layer 3
      Codec ID : 55
      Codec ID/Hint : MP3
      Duration : 2h 26mn
      Bit rate mode : Constant
      Bit rate : 128 Kbps
      Channel(s) : 2 channels
      Sampling rate : 48.0 KHz
      Resolution : 16 bits
      Stream size : 134 MiB (9%)
      Alignment : Aligned on interleaves
      Interleave, duration : 42 ms (1.00 video frame)
      Interleave, preload duration : 504 ms
      Writing library : LAME3.98.4


















ed2k: Harry.Potter.And.The.Deathly.Hallows.Part.1.(2011).BRRip.XviD-OpeD.avi  [1.40 Gb]
Imagem
Imagem
UPLOADER

Responder

Voltar para “Filmes Recentes // Recent Movies (Com Legendas/With Subtitles)”