Machete (2010) *BDRip* - MAGNET

Filmes lançados em 2013 e anos seguintes. / Movies launched in 2013 and following years. (Retail DVD)

Moderador: Moderador

Responder
Avatar do Utilizador
wh0p5y
eMuleCoop
eMuleCoop
Mensagens: 5177
Registado: 14 fev 2010, 10:21
Localização: Right Here

Machete (2010) *BDRip* - MAGNET

Mensagem por wh0p5y » 12 out 2010, 07:56




Synopsis
The highly skilled Federale Machete is hired by some unsavory types to assassinate a senator. But just as he's about to take the shot, he notices someone aiming at him and realizes he's been set up. He barely survives the sniper's bullet, and is soon out for revenge on his former employers, with the reluctant assistance of his old friend Cheech Marin, who has become a priest and taken a vow of nonviolence. If you hire him to take out the bad guys, make sure the bad guys aren't you!


imdb.com
Machete (2010)

Capa
Sinopse:After being set-up and betrayed by the man who hired him to assassinate a Texas Senator, an ex-Federale launches a brutal rampage of revenge against his former boss.
Pontuação:6.6
Duração:105 minutos
Idioma:English, Spanish, Hungarian
Realizador:Ethan Maniquis, Robert Rodriguez
Actores:Danny Trejo, Robert De Niro, Jessica Alba, Steven Seagal, Michelle Rodriguez
  
Fonte:http://www.imdb.com/title/tt0985694
Última Actualização:Segunda Março 12, 2018 10:28


Código: Selecionar todos

Complete name                    : Machete.2010.BDRip.XViD.AC3-MAGNET.avi
Format                           : AVI
Format/Info                      : Audio Video Interleave
File size                        : 1.36 GiB
Duration                         : 1h 44mn
Overall bit rate                 : 1 863 Kbps
Source                               : Machete 2010 BluRay 720p DTS x264-CHD

IMDB                                : http://www.imdb.com/title/tt0985694/
Audio                                : English
Subtitles                            : Engliish (non english parts)
Video
ID                               : 0
Format                           : MPEG-4 Visual
Format profile                   : Advanced Simple@L5
Format settings, BVOP            : Yes
Format settings, QPel            : No
Format settings, GMC             : No warppoints
Format settings, Matrix          : Default (H.263)
Codec ID                         : XVID
Codec ID/Hint                    : XviD
Duration                         : 1h 44mn
Bit rate                         : 1 469 Kbps
Width                            : 720 pixels
Height                           : 400 pixels
Display aspect ratio             : 16:9
Frame rate                       : 23.976 fps
Color space                      : YUV
Chroma subsampling               : 4:2:0
Bit depth                        : 8 bits
Scan type                        : Progressive
Bits/(Pixel*Frame)               : 0.213
Stream size                      : 1.07 GiB (79%)
Writing library                  : XviD 1.2.1 (UTC 2008-12-04)

Audio
ID                               : 1
Format                           : AC-3
Format/Info                      : Audio Coding 3
Mode extension                   : CM (complete main)
Codec ID                         : 2000
Duration                         : 1h 44mn
Bit rate mode                    : Constant
Bit rate                         : 384 Kbps
Channel(s)                       : 6 channels
Channel positions                : Front: L C R, Side: L R, LFE
Sampling rate                    : 48.0 KHz
Bit depth                        : 16 bits
Stream size                      : 287 MiB (21%)
Alignment                        : Aligned on interleaves
Interleave, duration             : 32 ms (0.77 video frame)



Imagem

Imagem

Imagem

Imagem

Imagem


ed2k: Machete.(2010).BDRip.XviD.AC3-MAGNET.avi  [1.36 Gb]
Imagem
Imagem
UPLOADER

csac

Re: Machete (2010) *BDRip* - MAGNET

Mensagem por csac » 15 out 2010, 18:41

bom post
:goodpost:
obrigado

Responder

Voltar para “Filmes Recentes // Recent Movies (Com Legendas/With Subtitles)”