Southland Tales (2006) *BDRip* - WAF

Filmes lançados em 2013 e anos seguintes. / Movies launched in 2013 and following years. (Retail DVD)

Moderador: Moderador

Responder
Avatar do Utilizador
wh0p5y
eMuleCoop
eMuleCoop
Mensagens: 5172
Registado: 14 fev 2010, 10:21
Localização: Right Here

Southland Tales (2006) *BDRip* - WAF

Mensagem por wh0p5y » 28 ago 2010, 03:18




Synopsis
Set in Los Angeles in the year 2008 during a three day heat wave just before a huge 4th of July celebration, an action star stricken with amnesia meets up with an adult film star developing her own reality television project and a Hermosa Beach police officer who holds the key to a vast conspiracy.


imdb.com
Southland Tales (2006)

Capa
Sinopse:During a three day heat wave just before a huge 4th of July celebration, an action star stricken with amnesia meets up with a porn star who is developing her own reality TV project, and a policeman who holds the key to a vast conspiracy.
Pontuação:5.5
Duração:145 minutos
Idioma:English
Realizador:Richard Kelly
Actores:Carlos Amezcua, Curtis Armstrong, Robert Benz, Todd Berger, Joe Campana
  
Fonte:http://www.imdb.com/title/tt0405336
Última Actualização:Segunda Março 12, 2018 10:45


Código: Selecionar todos

General
Complete name                    : D:\eMule\[????].Southland.Tales.2006.x264.AC3-WAF.mkv
Format                           : Matroska
File size                        : 2.05 GiB
Duration                         : 2h 24mn
Overall bit rate                 : 2 031 Kbps
Encoded date                     : UTC 2008-12-28 12:20:31
Writing application              : mkvmerge v2.2.0 ('Turn It On Again') built on Mar  4 2008 12:58:26
Writing library                  : libebml v0.7.7 + libmatroska v0.8.1

Video
ID                               : 1
Format                           : AVC
Format/Info                      : Advanced Video Codec
Format profile                   : Main@L2.1
Format settings, CABAC           : Yes
Format settings, ReFrames        : 2 frames
Format settings, GOP             : N=1
Muxing mode                      : Container profile=Unknown@2.1
Codec ID                         : V_MPEG4/ISO/AVC
Duration                         : 2h 24mn
Bit rate                         : 1 388 Kbps
Width                            : 1 024 pixels
Height                           : 426 pixels
Display aspect ratio             : 2.40:1
Frame rate                       : 23.976 fps
Color space                      : YUV
Chroma subsampling               : 4:2:0
Bit depth                        : 8 bits
Scan type                        : Progressive
Bits/(Pixel*Frame)               : 0.133
Stream size                      : 1.36 GiB (67%)
Writing library                  : x264 core 65 r1046 71d34b4
Encoding settings                : cabac=1 / ref=2 / deblock=1:0:0 / analyse=0x1:0x111 / me=umh / subme=6 / psy_rd=1.0:0.0 / mixed_ref=1 / me_range=16 / chroma_me=1 / trellis=1 / 8x8dct=0 / cqm=0 / deadzone=21,11 / chroma_qp_offset=-2 / threads=2 / nr=0 / decimate=1 / mbaff=0 / bframes=3 / b_pyramid=0 / b_adapt=1 / b_bias=0 / direct=3 / wpredb=1 / keyint=250 / keyint_min=25 / scenecut=40(pre) / rc=2pass / bitrate=1388 / ratetol=1.0 / qcomp=0.60 / qpmin=10 / qpmax=51 / qpstep=4 / cplxblur=20.0 / qblur=0.5 / ip_ratio=1.40 / pb_ratio=1.30 / aq=1:1.00

Audio
ID                               : 2
Format                           : AC-3
Format/Info                      : Audio Coding 3
Mode extension                   : CM (complete main)
Codec ID                         : A_AC3
Duration                         : 2h 24mn
Bit rate mode                    : Constant
Bit rate                         : 640 Kbps
Channel(s)                       : 6 channels
Channel positions                : Front: L C R, Side: L R, LFE
Sampling rate                    : 48.0 KHz
Bit depth                        : 16 bits
Stream size                      : 662 MiB (32%)














ed2k: Southland.Tales.(2006).x264.AC3-WAF.mkv  [2.05 Gb]
Imagem
Imagem
UPLOADER

Responder

Voltar para “Filmes Recentes // Recent Movies (Com Legendas/With Subtitles)”