Luftslottet Som Sprängdes (2009) *BDRip* - CHD

Filmes lançados em 2013 e anos seguintes. / Movies launched in 2013 and following years. (Retail DVD)

Moderador: Moderador

Responder
Avatar do Utilizador
Lost_Rider34
Administrador
Administrador
Mensagens: 10690
Registado: 15 out 2008, 14:07
Localização: Aqui
Contacto:

Luftslottet Som Sprängdes (2009) *BDRip* - CHD

Mensagem por Lost_Rider34 » 29 abr 2010, 18:08




O terceiro filme da Trilogia Millennium é a mais bem-sucedida série policial dos últimos anos, quer seja tratando da violência contra as mulheres, quer seja enfocando os crimes cometidos por magnatas ou pelo Estado, a saga cumpre sua principal missão: a de envolvê-lo em uma história impressionante, cheia de mistérios. — Grande parte dos segredos é desvendada, e Lisbeth Salander agora conta com excelentes aliados. O principal é Mikael Blomkvist, jornalista investigativo que já desbaratou esquemas fraudulentos e solucionou crimes escabrosos. No mesmo front estão ainda Annika Giannini, irmã de Mikael, advogada especializada em defender mulheres vítimas de violência, e o inspetor Jan Bublanski, que segue sua própria linha investigativa, na contramão da promotoria. – A rainha do castelo de ar enfoca de modo original as mazelas da sociedade atual — da ciranda financeira ao tráfico de mulheres — conquistando um lugar único também na literatura policial contemporânea.



imdb.com
The Girl Who Kicked the Hornet's Nest (2009)

Capa
Sinopse:Lisbeth is recovering in a hospital and awaiting trial for three murders when she is released. Mikael must prove her innocence, but Lisbeth must be willing to share the details of her sordid experiences with the court.
Pontuação:7.3
Duração:147 minutos
Idioma:Swedish
Realizador:Daniel Alfredson
Actores:Michael Nyqvist, Noomi Rapace, Lena Endre, Annika Hallin, Jacob Ericksson
  
Fonte:http://www.imdb.com/title/tt1343097
Última Actualização:Segunda Março 12, 2018 10:37



Código: Selecionar todos

General
Complete name                    :Luftslottet.Som.Sprangdes.2009.480P.BDRip.x264.ac3-CHD.mkv
Format                           : Matroska
File size                        : 2.05 GiB
Duration                         : 2h 26mn
Overall bit rate                 : 2 001 Kbps
Encoded date                     : UTC 2010-03-20 05:10:45
Writing application              : mkvmerge v2.4.0 ('Fumbling Towards Ecstasy') built on Oct 11 2008 20:13:15
Writing library                  : libebml v0.7.7 + libmatroska v0.8.1

Video
ID                               : 1
Format                           : AVC
Format/Info                      : Advanced Video Codec
Format profile                   : High@L4.1
Format settings, CABAC           : Yes
Format settings, ReFrames        : 5 frames
Muxing mode                      : Container profile=Unknown@4.1
Codec ID                         : V_MPEG4/ISO/AVC
Duration                         : 2h 26mn
Bit rate                         : 1 577 Kbps
Nominal bit rate                 : 1 615 Kbps
Width                            : 848 pixels
Height                           : 480 pixels
Display aspect ratio             : 16:9
Frame rate                       : 24.000 fps
Resolution                       : 8 bits
Colorimetry                      : 4:2:0
Scan type                        : Progressive
Bits/(Pixel*Frame)               : 0.161
Stream size                      : 1.62 GiB (79%)
Writing library                  : x264 core 80 r1376M 3feaec2

Audio
ID                               : 2
Format                           : AC-3
Format/Info                      : Audio Coding 3
Codec ID                         : A_AC3
Duration                         : 2h 26mn
Bit rate mode                    : Constant
Bit rate                         : 384 Kbps
Channel(s)                       : 6 channels
Channel positions                : Front: L C R, Side: L R, LFE
Sampling rate                    : 48.0 KHz
Stream size                      : 403 MiB (19%)




ImagemImagemImagemImagemImagem


LINK:
ed2k: Luftslottet.Som.Sprangdes.2009.480P.BDRip.x264.ac3-CHD.mkv  [2.05 Gb]
Imagem

Imagem

Responder

Voltar para “Filmes Recentes // Recent Movies (Com Legendas/With Subtitles)”