Tunnel Rats (2008) *480p* *BRRip* - CHD

Filmes lançados em 2013 e anos seguintes. / Movies launched in 2013 and following years. (Retail DVD)

Moderador: Moderador

Responder
Avatar do Utilizador
Barefaced
Administrador
Administrador
Mensagens: 35922
Registado: 06 jul 2007, 17:43
Localização: @ Home
Contacto:

Tunnel Rats (2008) *480p* *BRRip* - CHD

Mensagem por Barefaced » 29 dez 2009, 23:47




Durante a Guerra do Vietnam, uma unidade de combate especial dos EUA é enviada para procurar e matar soldados vietcongues em combates corpo-a-corpo nos complicados labirintos subterrâneos que eram feitos para deste modo ficarem protegidos. Esquadrões suicídias de uma espécie muito especial.

During the Vietnam War [1959-1975] a special US combat unit is sent out to hunt and kill the Viet Cong soldiers in a man-to-man combat in the endless tunnels underneath the jungle of Vietnam. Suicide squads of a special kind.


imdb.com
1968 Tunnel Rats (2008)

Capa
Sinopse:During the Vietnam War [1959-1975] a special US combat unit is sent out to hunt and kill the Viet Cong soldiers in a man-to-man combat in the endless tunnels underneath the jungle of Vietnam. Suicide squads of a special kind.
Pontuação:4.7
Duração:96 minutos
Idioma:English, Vietnamese
Realizador:Uwe Boll
Actores:Michael Paré, Wilson Bethel, Mitch Eakins, Erik Eidem, Brandon Fobbs
  
Fonte:http://www.imdb.com/title/tt0970462
Última Actualização:Segunda Março 12, 2018 09:49


Código: Selecionar todos

General
Complete name                    : Tunnel.Rats.2008.BDRip.480p.x264.AC3-CHD.mkv
Format                           : Matroska
File size                        : 1.38 GiB
Duration                         : 1h 36mn
Overall bit rate                 : 2 047 Kbps
Encoded date                     : UTC 2009-06-02 10:27:42
Writing application              : mkvmerge v2.2.0 ('Turn It On Again') built on Mar  4 2008 12:58:26
Writing library                  : libebml v0.7.7 + libmatroska v0.8.1

Video
ID                               : 1
Format                           : AVC
Format/Info                      : Advanced Video Codec
Format profile                   : High@L3.0
Format settings, CABAC           : Yes
Format settings, ReFrames        : 3 frames
Muxing mode                      : Container profile=Unknown@3.0
Codec ID                         : V_MPEG4/ISO/AVC
Duration                         : 1h 36mn
Bit rate                         : 1 622 Kbps
Nominal bit rate                 : 1 660 Kbps
Width                            : 848 pixels
Height                           : 368 pixels
Display aspect ratio             : 2.35
Frame rate                       : 23.976 fps
Resolution                       : 24 bits
Colorimetry                      : 4:2:0
Scan type                        : Progressive
Bits/(Pixel*Frame)               : 0.217
Stream size                      : 1.09 GiB (79%)
Writing library                  : x264 core 67 r1162M f7bfcfa
Encoding settings                : cabac=1 / ref=3 / deblock=1:-1:-1 / analyse=0x3:0x133 / me=hex / subme=5 / psy_rd=0.0:0.0 / mixed_ref=0 / me_range=16 / chroma_me=1 / trellis=0 / 8x8dct=1 / cqm=0 / deadzone=21,11 / chroma_qp_offset=0 / threads=3 / nr=0 / decimate=1 / mbaff=0 / bframes=16 / b_pyramid=0 / b_adapt=1 / b_bias=0 / direct=3 / wpredb=1 / keyint=250 / keyint_min=25 / scenecut=40 / rc=2pass / bitrate=1660 / ratetol=1.0 / qcomp=0.60 / qpmin=10 / qpmax=51 / qpstep=4 / cplxblur=20.0 / qblur=0.5 / ip_ratio=1.40 / pb_ratio=1.30 / aq=1:1.00

Audio
ID                               : 2
Format                           : AC-3
Format/Info                      : Audio Coding 3
Codec ID                         : A_AC3
Duration                         : 1h 36mn
Bit rate mode                    : Constant
Bit rate                         : 384 Kbps
Channel(s)                       : 6 channels
Channel positions                : Front: L C R, Surround: L R, LFE
Sampling rate                    : 48.0 KHz
Stream size                      : 264 MiB (19%)



Imagem

Imagem Imagem Imagem Imagem Imagem


ed2k: Tunnel.Rats.(2008).BDRip.480p.x264.AC3-CHD.[TheRostrum.net].mkv  [1.38 Gb]
Imagem

Responder

Voltar para “Filmes Recentes // Recent Movies (Com Legendas/With Subtitles)”