It's a Wonderful Life (1946) *BDRip* - CHD

Filmes lançados em 2013 e anos seguintes. / Movies launched in 2013 and following years. (Retail DVD)

Moderador: Moderador

Responder
Avatar do Utilizador
Lost_Rider34
Administrador
Administrador
Mensagens: 10736
Registado: 15 out 2008, 14:07
Localização: Aqui
Contacto:

It's a Wonderful Life (1946) *BDRip* - CHD

Mensagem por Lost_Rider34 » 12 dez 2009, 17:48

Imagem

Na véspera do natal, George Bailey está à beira do suicídio quando è salvo por um anjo da guarda em missão para ganhar suas asas. Morador de uma pequena cidade, Bailey é daqueles que sempre pensou primeiro no próximo e sacrificou seus sonhos em benefícios de outros. Agora está desiludido. Mas o anjo Clarence, numa tentativa de ajudá-lo para a vida, mostra-lhe como a cidade seria diferente se ele não tivesse nascido. Clássico de Frank Capra que teve cinco indicações para o Oscar: melhor filme, ator, diretor, montagem e som.


imdb.com
It's a Wonderful Life (1946)

Capa
Sinopse:An angel is sent from Heaven to help a desperately frustrated businessman by showing him what life would have been like if he had never existed.
Pontuação:8.6
Duração:130 minutos
Idioma:English
Realizador:Frank Capra
Actores:James Stewart, Donna Reed, Lionel Barrymore, Thomas Mitchell, Henry Travers
  
Fonte:http://www.imdb.com/title/tt0038650
Última Actualização:Segunda Março 12, 2018 02:08


Código: Selecionar todos

General
Complete name                    : H:\Classics (1900-1980)\It's a Wonderful Life\[?????].Its.A.Wonderful.Life.1946.BDRip.480P.x264.AC3-CHD.mkv
Format                           : Matroska
File size                        : 2.06 GiB
Duration                         : 2h 10mn
Overall bit rate                 : 2 256 Kbps
Encoded date                     : UTC 2009-11-05 03:13:19
Writing application              : mkvmerge v2.2.0 ('Turn It On Again') built on Mar  4 2008 12:58:26
Writing library                  : libebml v0.7.7 + libmatroska v0.8.1

Video
ID                               : 1
Format                           : AVC
Format/Info                      : Advanced Video Codec
Format profile                   : High@L3.1
Format settings, CABAC           : Yes
Format settings, ReFrames        : 3 frames
Muxing mode                      : Container profile=Unknown@3.1
Codec ID                         : V_MPEG4/ISO/AVC
Duration                         : 2h 10mn
Bit rate                         : 1 987 Kbps
Nominal bit rate                 : 2 029 Kbps
Width                            : 848 pixels
Height                           : 640 pixels
Display aspect ratio             : 4:3
Frame rate                       : 23.976 fps
Resolution                       : 24 bits
Colorimetry                      : 4:2:0
Scan type                        : Progressive
Bits/(Pixel*Frame)               : 0.153
Stream size                      : 1.81 GiB (88%)
Writing library                  : x264 core 76 r1271 496d79d
Encoding settings                : cabac=1 / ref=3 / deblock=1:-1:-1 / analyse=0x3:0x133 / me=hex / subme=8 / psy=1 / psy_rd=1.0:0.0 / mixed_ref=0 / me_range=16 / chroma_me=1 / trellis=1 / 8x8dct=1 / cqm=0 / deadzone=21,11 / chroma_qp_offset=-2 / threads=6 / nr=0 / decimate=1 / mbaff=0 / bframes=16 / b_pyramid=0 / b_adapt=1 / b_bias=0 / direct=3 / wpredb=1 / keyint=250 / keyint_min=25 / scenecut=40 / rc=2pass / mbtree=0 / bitrate=2029 / ratetol=1.0 / qcomp=0.60 / qpmin=10 / qpmax=51 / qpstep=4 / cplxblur=20.0 / qblur=0.5 / ip_ratio=1.40 / pb_ratio=1.30 / aq=1:1.00

Audio
ID                               : 2
Format                           : AC-3
Format/Info                      : Audio Coding 3
Codec ID                         : A_AC3
Duration                         : 2h 10mn
Bit rate mode                    : Constant
Bit rate                         : 224 Kbps
Channel(s)                       : 2 channels
Channel positions                : L R
Sampling rate                    : 48.0 KHz
Stream size                      : 209 MiB (10%)



Imagem

Imagem Imagem Imagem
Imagem Imagem Imagem


ed2k: Its.A.Wonderful.Life.(1946).BDRip.480P.x264.AC3-CHD.[TheRostrum.net].mkv  [2.06 Gb]
Imagem

Responder

Voltar para “Filmes Recentes // Recent Movies (Com Legendas/With Subtitles)”