Command Performance (2009) *480p* *BDRip* - CHD

Filmes lançados em 2013 e anos seguintes. / Movies launched in 2013 and following years. (Retail DVD)

Moderador: Moderador

Responder
Avatar do Utilizador
Lost_Rider34
Administrador
Administrador
Mensagens: 10736
Registado: 15 out 2008, 14:07
Localização: Aqui
Contacto:

Command Performance (2009) *480p* *BDRip* - CHD

Mensagem por Lost_Rider34 » 03 dez 2009, 16:42




tt1210801


Um concerto de caridade em Moscovo é invadido por terroristas que fazem reféns a cantora Venus e o Presidente Russo. A ajuda vem a caminho quando o baterista da banda, Joe, e um jovem agente do FSB Russo se juntam para tentar o salvamento, mas , as coisas não são tão simples como aparentam!


Código: Selecionar todos

Format                           : Matroska
File size                        : 1.40 GiB
Duration                         : 1h 33mn
Overall bit rate                 : 2 139 Kbps
Encoded date                     : UTC 2009-11-06 08:37:35
Writing application              : mkvmerge v2.2.0 ('Turn It On Again') built on Mar  4 2008 12:58:26
Writing library                  : libebml v0.7.7 + libmatroska v0.8.1

Video
ID                               : 1
Format                           : AVC
Format/Info                      : Advanced Video Codec
Format profile                   : High@L3.0
Format settings, CABAC           : Yes
Format settings, ReFrames        : 3 frames
Muxing mode                      : Container profile=Unknown@3.0
Codec ID                         : V_MPEG4/ISO/AVC
Duration                         : 1h 33mn
Bit rate                         : 1 712 Kbps
Nominal bit rate                 : 1 752 Kbps
Width                            : 848 pixels
Height                           : 352 pixels
Display aspect ratio             : 2.40:1
Frame rate                       : 23.976 fps
Resolution                       : 24 bits
Colorimetry                      : 4:2:0
Scan type                        : Progressive
Bits/(Pixel*Frame)               : 0.239
Stream size                      : 1.12 GiB (80%)

Audio
ID                               : 2
Format                           : AC-3
Format/Info                      : Audio Coding 3
Codec ID                         : A_AC3
Duration                         : 1h 33mn
Bit rate mode                    : Constant
Bit rate                         : 384 Kbps
Channel(s)                       : 6 channels
Channel positions                : Front: L C R, Surround: L R, LFE
Sampling rate                    : 48.0 KHz
Stream size                      : 257 MiB (18%)






Imagem

ed2k: Command.Performance.2009.BDRip.480P.x264.AC3-CHD.[TheRostrum.net].mkv  [1.40 Gb]
Imagem

Responder

Voltar para “Filmes Recentes // Recent Movies (Com Legendas/With Subtitles)”