Drive (2011) *576p BDRip* - WHiiZz

Filmes lançados em 2013 e anos seguintes. / Movies launched in 2013 and following years. (Retail DVD)

Moderador: Moderador

Responder
Avatar do Utilizador
wh0p5y
eMuleCoop
eMuleCoop
Mensagens: 5172
Registado: 14 fev 2010, 10:21
Localização: Right Here

Drive (2011) *576p BDRip* - WHiiZz

Mensagem por wh0p5y » 12 dez 2011, 23:42




Synopsis
Ryan Gosling é um "duplo" de Hollywood que presta serviços como motorista para alguns criminosos do submundo do crime. Ao aceitar ajudar o marido da sua amiga Irene (Carey Mulligan), ele passa a ser alvo de um dos homens mais perigosos de LA.

Ryan Gosling stars as a Los Angeles wheelman for hire, stunt driving for movie productions by day and steering getaway vehicles for armed heists by night. Though a loner by nature, Driver can’t help falling in love with his beautiful neighbor Irene (Carey Mulligan), a vulnerable young mother dragged into a dangerous underworld by the return of her ex-convict husband Standard (Oscar Isaac). After a heist intended to pay off Standard’s protection money spins unpredictably out of control, Driver finds himself driving defense for the girl he loves, tailgated by a syndicate of deadly serious criminals. But when he realizes that the gangsters are after more than the bag of cash in his trunk-that they’re coming straight for Irene and her son-Driver is forced to shift gears and go on offense.


imdb.com
Drive (2011)

Capa
Sinopse:A mysterious Hollywood stuntman and mechanic moonlights as a getaway driver and finds himself in trouble when he helps out his neighbor.
Pontuação:7.8
Duração:100 minutos
Idioma:English, Spanish
Realizador:Nicolas Winding Refn
Actores:Ryan Gosling, Carey Mulligan, Bryan Cranston, Albert Brooks, Oscar Isaac
  
Fonte:http://www.imdb.com/title/tt0780504
Última Actualização:Segunda Março 12, 2018 09:20


Código: Selecionar todos

General
Complete name                    : Drive.(2011).576p.BRRip.XviD.AC3-WHiiZz.avi
Format                           : AVI
Format/Info                      : Audio Video Interleave
Format profile                   : OpenDML
File size                        : 2.18 GiB
Duration                         : 1h 40mn
Overall bit rate                 : 3 101 Kbps
Writing application              : VirtualDubMod 1.5.10.2 (build 2540/release)
Writing library                  : VirtualDubMod build 2540/release

Video
ID                               : 0
Format                           : MPEG-4 Visual
Format profile                   : Advanced Simple@L5
Format settings, BVOP            : 2
Format settings, QPel            : No
Format settings, GMC             : No warppoints
Format settings, Matrix          : Custom
Codec ID                         : XVID
Codec ID/Hint                    : XviD
Duration                         : 1h 40mn
Bit rate                         : 2 642 Kbps
Width                            : 1 024 pixels
Height                           : 432 pixels
Display aspect ratio             : 2.35:1
Frame rate                       : 23.976 fps
Color space                      : YUV
Chroma subsampling               : 4:2:0
Bit depth                        : 8 bits
Scan type                        : Progressive
Compression mode                 : Lossy
Bits/(Pixel*Frame)               : 0.249
Stream size                      : 1.86 GiB (85%)
Writing library                  : XviD 1.2.1 (UTC 2008-12-04)

Audio
ID                               : 1
Format                           : AC-3
Format/Info                      : Audio Coding 3
Mode extension                   : CM (complete main)
Codec ID                         : 2000
Duration                         : 1h 40mn
Bit rate mode                    : Constant
Bit rate                         : 448 Kbps
Channel(s)                       : 6 channels
Channel positions                : Front: L C R, Side: L R, LFE
Sampling rate                    : 48.0 KHz
Bit depth                        : 16 bits
Compression mode                 : Lossy
Stream size                      : 323 MiB (14%)
Alignment                        : Split accross interleaves
Interleave, duration             : 42 ms (1.00 video frame)
Interleave, preload duration     : 500 ms



















ed2k: Drive.(2011).576p.BRRip.XviD.AC3-WHiiZz.avi  [2.18 Gb]
Drive.(2011).576p.BRRip.XviD.AC3-WHiiZz.rar
Não tem Permissão para ver os ficheiros anexados nesta mensagem.
Imagem
Imagem
UPLOADER

Avatar do Utilizador
Barefaced
Administrador
Administrador
Mensagens: 36666
Registado: 06 jul 2007, 17:43
Localização: @ Home
Contacto:

Re: Drive (2011) *576p BDRip* - WHiiZz

Mensagem por Barefaced » 12 dez 2011, 23:55

...::: Adicionada legenda :portugal: :::...
Imagem
Imagem

Responder

Voltar para “Filmes Recentes // Recent Movies (Com Legendas/With Subtitles)”