Rise of the Planet of the Apes (2011) *BDRip* - NiTRO

Filmes lançados em 2013 e anos seguintes. / Movies launched in 2013 and following years. (Retail DVD)

Moderador: Moderador

Responder
Avatar do Utilizador
Lost_Rider34
Administrador
Administrador
Mensagens: 10690
Registado: 15 out 2008, 14:07
Localização: Aqui
Contacto:

Rise of the Planet of the Apes (2011) *BDRip* - NiTRO

Mensagem por Lost_Rider34 » 07 nov 2011, 21:55



Um simples acto de compaixão e de simultânea arrogância leva-nos a uma guerra como até hoje não assistimos – a ascensão do planeta dos macacos. O macaco "sapiens" é um macaco humanizado nas capacidades intelectuais e emocionais, cuja interação com o ser humano parece ser entre iguais. Tal acontecimento transforma-se numa nova revolução, e como em qualquer transformação do surgir do inesperado, novas mentalidades crescem acompanhando novos perigos, desta vez protagonizados pela ascensão do fenómeno símio...


imdb.com
Rise of the Planet of the Apes (2011)

Capa
Sinopse:A substance designed to help the brain repair itself gives rise to a super-intelligent chimpanzee who leads an ape uprising.
Pontuação:7.6
Duração:105 minutos
Idioma:English, Sign Languages
Realizador:Rupert Wyatt
Actores:Andy Serkis, Karin Konoval, Terry Notary, Richard Ridings, Christopher Gordon
  
Fonte:http://www.imdb.com/title/tt1318514
Última Actualização:Segunda Março 12, 2018 09:54


Código: Selecionar todos

Rise.of.the.Planet.of.the.Apes.2011.BDRip.XviD-NiTRO
Source: CHD bluray (thanks)
http://www.imdb.com/title/tt0133152/

General
Format                           : AVI
Format/Info                      : Audio Video Interleave
Format profile                   : OpenDML
File size                        : 1.11 GiB
Duration                         : 1h 44mn
Overall bit rate                 : 1 508 Kbps
Writing application              : Lavf51.12.1

Video
ID                               : 0
Format                           : AVC
Format/Info                      : Advanced Video Codec
Format profile                   : Baseline@L1.3
Format settings, CABAC           : No
Format settings, ReFrames        : 1 frame
Format settings, GOP             : M=1, N=12
Codec ID                         : H264
Duration                         : 1h 44mn
Bit rate                         : 196 Kbps
Width                            : 640 pixels
Height                           : 272 pixels
Display aspect ratio             : 2.35:1
Frame rate                       : 23.976 fps
Color space                      : YUV
Chroma subsampling               : 4:2:0
Bit depth                        : 8 bits
Scan type                        : Progressive
Bits/(Pixel*Frame)               : 0.047
Stream size                      : 147 MiB (13%)

Audio
ID                               : 1
Format                           : MPEG Audio
Codec ID                         : 55
Codec ID/Hint                    : MP3
Duration                         : 1h 44mn
Bit rate                         : 128 Kbps
Channel(s)                       : 2 channels
Sampling rate                    : 44.1 KHz
Compression mode                 : Lossy
Stream size                      : 6.59 MiB (1%)
Alignment                        : Aligned on interleaves
Interleave, duration             : 47 ms (1.12 video frame)










[youtube]http://www.youtube.com/watch?v=f8D2NIGEJW8[/youtube]


LINK:

ed2k: Rise.of.the.Planet.of.the.Apes.2011.BDRip.XviD-NiTRO.avi  [1.11 Gb]


Rise.of.the.Planet.of.the.Apes.2011.BDRip.XviD-NiTRO.rar
Não tem Permissão para ver os ficheiros anexados nesta mensagem.
Imagem

Imagem

Avatar do Utilizador
tueunos
Utilizador
Utilizador
Mensagens: 7626
Registado: 17 mai 2008, 21:31
Localização: Algures Planeta Terra

Re: Rise of the Planet of the Apes (2011) *BDRip* - NiTRO

Mensagem por tueunos » 12 nov 2011, 11:12

Legenda PT-BR Anexada.
Imagem

"A vida é uma pedra de amolar: desgasta-nos ou afia-nos, conforme o metal de que somos feitos."

"Eu sou responsável pelo que digo, não pelo que as pessoas entendem."

Responder

Voltar para “Filmes Recentes // Recent Movies (Com Legendas/With Subtitles)”