Thor (2011) *480p BDRip* - WBITZ

Filmes lançados em 2013 e anos seguintes. / Movies launched in 2013 and following years. (Retail DVD)

Moderador: Moderador

Responder
Avatar do Utilizador
quiZZical
eMulePoster
eMulePoster
Mensagens: 4860
Registado: 28 jul 2011, 19:30

Thor (2011) *480p BDRip* - WBITZ

Mensagem por quiZZical » 26 ago 2011, 23:05




Synopsis
Thor (Chris Hemsworth) estava prestes a receber o comando de Asgard das mãos de seu pai Odin (Anthony Hopkins) quando forças inimigas quebraram um acordo de paz. Disposto a se vingar do ocorrido, o jovem guerreiro desobedece as ordens do rei e quase dá início a uma nova guerra entre os reinos. Enfurecido com a atitude do filho e herdeiro, Odin retira seus poderes e o expulsa para a Terra. Lá, Thor acaba conhecendo a cientista Jane Foster (Natalie Portman) e precisa recuperar seu martelo, enquanto seu irmão Loki (Tom Hiddleston) elabora um plano para assumir o poder. Mas os guerreiros do Deus do Trovão fazem a mesma viagem para buscar o amigo e impedir que isso aconteça. Só que eles não vieram sozinhos e o inimigo está presente para uma batalha que está apenas começando.


At the center of the story is The Mighty Thor, a powerful but arrogant warrior whose reckless actions reignite an ancient war. Thor is cast down to Earth and forced to live among humans as punishment. Once here, Thor learns what it takes to be a true hero when the most dangerous villain of his world sends the darkest forces of Asgard to invade Earth.


imdb.com
Thor (2011)

Capa
Sinopse:The powerful, but arrogant god Thor, is cast out of Asgard to live amongst humans in Midgard (Earth), where he soon becomes one of their finest defenders.
Pontuação:7.0
Duração:115 minutos
Idioma:English
Realizador:Kenneth Branagh
Actores:Chris Hemsworth, Natalie Portman, Tom Hiddleston, Anthony Hopkins, Stellan Skarsgård
  
Fonte:http://www.imdb.com/title/tt0800369
Última Actualização:Segunda Março 12, 2018 10:16


Código: Selecionar todos

General
Complete name                    : Thor.(2011).480p.BRRip.XviD.AC3-WBITZ.avi
Format                           : AVI
Format/Info                      : Audio Video Interleave
File size                        : 2.18 GiB
Duration                         : 1h 54mn
Overall bit rate                 : 2 718 Kbps

Video
ID                               : 0
Format                           : MPEG-4 Visual
Format profile                   : Simple@L4a
Format settings, BVOP            : No
Format settings, QPel            : No
Format settings, GMC             : No warppoints
Format settings, Matrix          : Default (H.263)
Codec ID                         : FMP4
Duration                         : 1h 54mn
Bit rate                         : 2 261 Kbps
Width                            : 720 pixels
Height                           : 304 pixels
Display aspect ratio             : 2.35:1
Frame rate                       : 23.976 fps
Color space                      : YUV
Chroma subsampling               : 4:2:0
Bit depth                        : 8 bits
Scan type                        : Progressive
Compression mode                 : Lossy
Bits/(Pixel*Frame)               : 0.431
Stream size                      : 1.81 GiB (83%)
Writing library                  : Lavc52.72.2

Audio
ID                               : 1
Format                           : AC-3
Format/Info                      : Audio Coding 3
Mode extension                   : CM (complete main)
Codec ID                         : 2000
Duration                         : 1h 54mn
Bit rate mode                    : Constant
Bit rate                         : 448 Kbps
Channel(s)                       : 6 channels
Channel positions                : Front: L C R, Side: L R, LFE
Sampling rate                    : 48.0 KHz
Bit depth                        : 16 bits
Compression mode                 : Lossy
Stream size                      : 368 MiB (16%)
Alignment                        : Aligned on interleaves
Interleave, duration             : 42 ms (1.00 video frame)



















ed2k: Thor.(2011).480p.BRRip.XviD.AC3-WBITZ.avi  [2.18 Gb]
Thor.(2011).480p.BRRip.XviD.AC3-WBITZ.rar
Não tem Permissão para ver os ficheiros anexados nesta mensagem.

Avatar do Utilizador
tueunos
Utilizador
Utilizador
Mensagens: 7626
Registado: 17 mai 2008, 21:31
Localização: Algures Planeta Terra

Re: Thor (2011) *480p BDRip* - WBITZ

Mensagem por tueunos » 29 ago 2011, 20:53

Legenda PT/PT e nova sinopse adicionada.
Imagem

"A vida é uma pedra de amolar: desgasta-nos ou afia-nos, conforme o metal de que somos feitos."

"Eu sou responsável pelo que digo, não pelo que as pessoas entendem."

Responder

Voltar para “Filmes Recentes // Recent Movies (Com Legendas/With Subtitles)”