The Green Hornet (2011) *480p BDRip* - MECK90

Filmes lançados em 2013 e anos seguintes. / Movies launched in 2013 and following years. (Retail DVD)

Moderador: Moderador

Responder
Avatar do Utilizador
wh0p5y
eMuleCoop
eMuleCoop
Mensagens: 5172
Registado: 14 fev 2010, 10:21
Localização: Right Here

The Green Hornet (2011) *480p BDRip* - MECK90

Mensagem por wh0p5y » 01 abr 2011, 20:17




Synopsis
Britt Reid é filho do mais respeitado magnata dos media de Los Angeles, e leva uma vida boémia, de excessos e festas. Até ao dia em que o seu pai morre misteriosamente, deixando o vasto império que construiu nas mãos de Britt. Inesperadamente, Reid desenvolve uma relação de amizade com um dos empregados do seu pai, o inventivo Kato, e os dois começam a planear fazer algo de útil das suas vidas: lutar contra o crime. Para tal, disfarçam-se de criminosos, de modo a conseguirem chegar perto dos verdadeiros maus da fita. É desta forma que Britt se torna o vigilante Green Hornet e Kato o seu parceiro. Rapidamente, os dois começam a ser conhecidos no mundo do crime, e com ajuda da secretária de Britt, Lenore Case, pretendem acabar de vez com o rei do submundo de Los Angeles - Benjamin Chudnofsky. Mas Chudnofsky tem outros planos: acabar de vez com o Green Hornet...

Britt Reid (Seth Rogen), son and heir to Los Angeles' largest newspaper fortune, is a rich, spoiled playboy who has been happy to maintain a direction-less existence. When his father James Reid (Tom Wilkinson) mysteriously dies, Britt meets an impressive and resourceful company employee, Kato (Jay Chou). They realize that they have the resources to do something worthwhile with their lives and finally step out of James Reid's shadow. Kato builds the ultimate weapon, The Black Beauty, an indestructible car with every weapon and gadget imaginable and Britt decides that in order to be heroes, they will pose as villains. With the help of Britt's new secretary, Lenore Case (Cameron Diaz), they learn that the chief criminal in the city is named Benjamin Chudnofsky (Christoph Waltz). He has united all the gangs under his power, and he quickly sees that the Green Hornet is a direct threat to the prosperous criminal underworld he controls. Directed by Michel Gondry.


imdb.com
The Green Hornet (2011)

Capa
Sinopse:Following the death of his father, Britt Reid, heir to his father's large company, teams up with his late dad's assistant Kato to become a masked crime fighting team.
Pontuação:5.8
Duração:119 minutos
Idioma:English, Mandarin
Realizador:Michel Gondry
Actores:Seth Rogen, Jay Chou, Cameron Diaz, Tom Wilkinson, Christoph Waltz
  
Fonte:http://www.imdb.com/title/tt0990407
Última Actualização:Segunda Março 12, 2018 08:26


Código: Selecionar todos

General
Complete name: The.Green.Hornet.2011.480p.BRRip.XviD.AC3-MECK90.avi
Format: AVI
Format/Info: Audio Video Interleave
File size: 1.95 GiB
Duration: 1h 58mn
Overall bit rate: 2 352 Kbps
Writing library: VirtualDub build 32593/release

Video
ID: 0
Format: MPEG-4 Visual
Format profile: Advanced Simple@L5
Format settings, BVOP: Yes
Format settings, QPel: No
Format settings, GMC: No warppoints
Format settings, Matrix: Default (MPEG)
Muxing mode: Packed bitstream
Codec ID: XVID
Codec ID/Hint: XviD
Duration: 1h 58mn
Bit rate: 1 895 Kbps
Width: 720 pixels
Height: 304 pixels
Display aspect ratio: 2.35:1
Frame rate: 23.976 fps
Resolution: 8 bits
Colorimetry: 4:2:0
Scan type: Progressive
Bits/(Pixel*Frame): 0.361
Stream size: 1.57 GiB (81%)
Writing library: XviD 1.2.1 (UTC 2008-12-04)

Audio
ID: 1
Format: AC-3
Format/Info: Audio Coding 3
Format_Settings_ModeExtension: CM (complete main)
Codec ID: 2000
Duration: 1h 58mn
Bit rate mode: Constant
Bit rate: 448 Kbps
Channel(s): 6 channels
Channel positions: Front: L C R, Side: L R, LFE
Sampling rate: 48.0 KHz
Stream size: 381 MiB (19%)
Alignment: Aligned on interleaves
Interleave, duration: 42 ms (1.00 video frame)
Interleave, preload duration: 512 ms














ed2k: The.Green.Hornet.(2011).480p.BRRip.XviD.AC3-MECK90.avi  [1.95 Gb]
The.Green.Hornet.(2011).480p.BRRip.XviD.AC3-MECK90.rar
Não tem Permissão para ver os ficheiros anexados nesta mensagem.
Imagem
Imagem
UPLOADER

Avatar do Utilizador
tueunos
Utilizador
Utilizador
Mensagens: 7609
Registado: 17 mai 2008, 21:31
Localização: Algures Planeta Terra

Re: The Green Hornet (2011) *480p BDRip* - MECK90

Mensagem por tueunos » 03 abr 2011, 18:53

Adicionado:
Trailer
Sinopse
Legenda PT/PT
band6
Imagem

"A vida é uma pedra de amolar: desgasta-nos ou afia-nos, conforme o metal de que somos feitos."

"Eu sou responsável pelo que digo, não pelo que as pessoas entendem."

Responder

Voltar para “Filmes Recentes // Recent Movies (Com Legendas/With Subtitles)”