The Sunset Limited (2011) *BDRip* - CM8

Filmes lançados em 2013 e anos seguintes. / Movies launched in 2013 and following years. (Retail DVD)

Moderador: Moderador

Responder
Avatar do Utilizador
Lost_Rider34
Administrador
Administrador
Mensagens: 10690
Registado: 15 out 2008, 14:07
Localização: Aqui
Contacto:

The Sunset Limited (2011) *BDRip* - CM8

Mensagem por Lost_Rider34 » 27 fev 2011, 21:17



Na trama, o evangélico ex-condenado Black (Jackson) salva o professor ateu White (Jones), que ia se jogar na frente de um trem do metrô do Harlem, o Sunset Limited. Começa então a peça de fato, com os dois no apartamento de Black - que se recusa a deixar White sair - discutindo religião, vida e morte.
O telefilme é o primeiro trabalho de Jones como diretor depois de Três Enterros.


imdb.com
The Sunset Limited (2011)

Capa
Sinopse:Two men in an apartment with their opposing beliefs.
Pontuação:7.4
Duração:91 minutos
Idioma:English
Realizador:Tommy Lee Jones
Actores:Samuel L. Jackson, Tommy Lee Jones
  
Fonte:http://www.imdb.com/title/tt1510938
Última Actualização:Segunda Março 12, 2018 10:01


Código: Selecionar todos

General
Complete name                    : The.Sunset.Limited.2011.BDRip.XVID.AC3.HQ.Hive-CM8.avi
Format                           : AVI
Format/Info                      : Audio Video Interleave
File size                        : 1.52 GiB
Duration                         : 1h 30mn
Overall bit rate                 : 2 396 Kbps
Writing application              : Nandub v1.0rc2
Writing library                  : Nandub build 1853/release
Video
ID                               : 0
Format                           : MPEG-4 Visual
Format profile                   : Advanced Simple@L5
Format settings, BVOP            : Yes
Format settings, QPel            : Yes
Format settings, GMC             : No warppoints
Format settings, Matrix          : Default (H.263)
Muxing mode                      : Packed bitstream
Codec ID                         : XVID
Codec ID/Hint                    : XviD
Duration                         : 1h 30mn
Bit rate                         : 2 003 Kbps
Width                            : 720 pixels
Height                           : 400 pixels
Display aspect ratio             : 16:9
Frame rate                       : 23.976 fps
Color space                      : YUV
Chroma subsampling               : 4:2:0
Bit depth                        : 8 bits
Scan type                        : Progressive
Bits/(Pixel*Frame)               : 0.290
Stream size                      : 1.27 GiB (84%)
Writing library                  : XviD 1.2.1 (UTC 2008-12-04)
Audio
ID                               : 1
Format                           : AC-3
Format/Info                      : Audio Coding 3
Mode extension                   : CM (complete main)
Codec ID                         : 2000
Duration                         : 1h 30mn
Bit rate mode                    : Constant
Bit rate                         : 384 Kbps
Channel(s)                       : 6 channels
Channel positions                : Front: L C R, Side: L R, LFE
Sampling rate                    : 48.0 KHz
Bit depth                        : 16 bits
Stream size                      : 250 MiB (16%)
Alignment                        : Split accross interleaves
Interleave, duration             : 42 ms (1.00 video frame)
Interleave, preload duration     : 500 ms

















LINKS:

ed2k: The.Sunset.Limited.2011.BDRip.XVID.AC3.HQ.Hive-CM8.[TheRostrum.net].avi  [1.52 Gb]
ed2k: The.Sunset.Limited.2011.BDRip.READNFO.XVID.AC3.HQ.Hive-CM8.[TheRostrum.net].nfo  [4.0 Kb]
ed2k: The.Sunset.Limited.2011.BDRip.XVID.AC3.HQ.Hive-CM8.sample.[TheRostrum.net].avi  [7.60 Mb]
Não tem Permissão para ver os ficheiros anexados nesta mensagem.
Imagem

Imagem

Avatar do Utilizador
tueunos
Utilizador
Utilizador
Mensagens: 7626
Registado: 17 mai 2008, 21:31
Localização: Algures Planeta Terra

Re: The Sunset Limited (2011) *BDRip* - CM8

Mensagem por tueunos » 06 mar 2011, 21:45

Adicionada Legenda
band2
Imagem

"A vida é uma pedra de amolar: desgasta-nos ou afia-nos, conforme o metal de que somos feitos."

"Eu sou responsável pelo que digo, não pelo que as pessoas entendem."

Responder

Voltar para “Filmes Recentes // Recent Movies (Com Legendas/With Subtitles)”