Saw 3D (2010) *480p BDRip* - MECK90

Filmes lançados em 2013 e anos seguintes. / Movies launched in 2013 and following years. (Retail DVD)

Moderador: Moderador

Responder
Avatar do Utilizador
RuySnake
Utilizador
Utilizador
Mensagens: 2305
Registado: 28 fev 2009, 19:14

Saw 3D (2010) *480p BDRip* - MECK90

Mensagem por RuySnake » 26 dez 2010, 18:55




:portugal: Bobby Daggen (Sean Patrcik Flanery) lança livro e DVD, explorando sua experiência de ter escapado das armadilhas de Jigsaw (Tobin Bell). Ele reúne um grupo de sobreviventes para a gravação de um programa de televisão onde todos dão depoimentos sobre os momentos terríveis que passaram. Enquanto isso, novas mortes voltam a acontecer e sentindo-se pressionada por Hoffman (Costas Mandylor), a esposa de Jigsaw, Jill (Betsy Russell), decide contar a verdade para a polícia. Mas é tarde demais. Agora, um segredo de Daggen vai desencadear uma nova onda de terror.


imdb.com
Saw 3D: The Final Chapter (2010)

Capa
Sinopse:As a deadly battle rages over Jigsaw's brutal legacy, a group of Jigsaw survivors gathers to seek the support of self-help guru and fellow survivor Bobby Dagen, a man whose own dark secrets unleash a new wave of terror.
Pontuação:5.6
Duração:90 minutos
Idioma:English
Realizador:Kevin Greutert
Actores:Tobin Bell, Costas Mandylor, Betsy Russell, Cary Elwes, Sean Patrick Flanery
  
Fonte:http://www.imdb.com/title/tt1477076
Última Actualização:Segunda Março 12, 2018 09:43


Código: Selecionar todos

General
Complete name                    : C:\Downloads\Emule\Saw.VII.2010.480p.BRRip.XviD.AC3-MECK90.avi
Format                           : AVI
Format/Info                      : Audio Video Interleave
File size                        : 1.54 GiB
Duration                         : 1h 30mn
Overall bit rate                 : 2 443 Kbps
Writing library                  : VirtualDub build 32593/release

Video
ID                               : 0
Format                           : MPEG-4 Visual
Format profile                   : Advanced Simple@L5
Format settings, BVOP            : Yes
Format settings, QPel            : No
Format settings, GMC             : No warppoints
Format settings, Matrix          : Default (MPEG)
Muxing mode                      : Packed bitstream
Codec ID                         : XVID
Codec ID/Hint                    : XviD
Duration                         : 1h 30mn
Bit rate                         : 1 985 Kbps
Width                            : 720 pixels
Height                           : 400 pixels
Display aspect ratio             : 16:9
Frame rate                       : 23.976 fps
Resolution                       : 8 bits
Colorimetry                      : 4:2:0
Scan type                        : Progressive
Bits/(Pixel*Frame)               : 0.288
Stream size                      : 1.25 GiB (81%)
Writing library                  : XviD 1.2.1 (UTC 2008-12-04)

Audio
ID                               : 1
Format                           : AC-3
Format/Info                      : Audio Coding 3
Format_Settings_ModeExtension    : CM (complete main)
Codec ID                         : 2000
Duration                         : 1h 30mn
Bit rate mode                    : Constant
Bit rate                         : 448 Kbps
Channel(s)                       : 6 channels
Channel positions                : Front: L C R, Side: L R, LFE
Sampling rate                    : 48.0 KHz
Stream size                      : 288 MiB (18%)
Alignment                        : Aligned on interleaves
Interleave, duration             : 42 ms (1.00 video frame)
Interleave, preload duration     : 512 ms




Imagem

Imagem

Imagem

Imagem

Imagem


[youtube]http://www.youtube.com/watch?v=nVQZIJr6z2g[/youtube]


ed2k: Saw.VII.2010.480p.BRRip.XviD.AC3-MECK90.avi  [1.54 Gb]
Não tem Permissão para ver os ficheiros anexados nesta mensagem.
Imagem

Responder

Voltar para “Filmes Recentes // Recent Movies (Com Legendas/With Subtitles)”