Flipped (2010) *BDRip* - CM8

Filmes lançados em 2013 e anos seguintes. / Movies launched in 2013 and following years. (Retail DVD)

Moderador: Moderador

Responder
Avatar do Utilizador
Lost_Rider34
Administrador
Administrador
Mensagens: 10736
Registado: 15 out 2008, 14:07
Localização: Aqui
Contacto:

Flipped (2010) *BDRip* - CM8

Mensagem por Lost_Rider34 » 28 nov 2010, 01:50

Imagem


Sinopse
Juliana Baker e Bryce Loski são vizinhos e desde os sete anos ela sempre nutriu um amor platônico por ele, que nunca a correspondeu, por considerá-la excêntrica. Bryce passa então a evitá-la a todo custo, o que se torna cada vez mais difícil, visto que além de vizinhos eles estudam na mesma sala na escola. Aos treze anos, contudo, o avô de Bryce, Chet Duncan, se muda para a sua casa e passa a conviver mais com ele e sua família. Como Chet gostar de lidar com plantas – e Juliana também – os dois começam uma estranha amizade, o que faz com que Bryce comece a reparar mais na garota. A partir daí, vários acontecimentos fazem com que ambos se aproximem cada vez mais, como um jantar com a família de ambos, o festival da primavera na escola e a ameaça de demolirem uma árvore na vizinhança que é muito querida por Juliana.

A young schoolboy realizes that the same girl he struggled to avoid may actually be his one true love in this coming-of-age romantic comedy from director Rob Reiner. Adapted from the book by Wendelin Van Draanen, Flipped tells the story of mischievous schoolboy Bryce (Callan McAuliffe) and his neighbor Juli (Madeline Carroll), who's had a crush on her girl-phobic classmate since second grade. Over the course of six years, Juli pines for Bryce as he does everything in his power to put her off. Later, as the pair enters junior high, Bryce discovers girls and the tide starts to shift. But will Juli still be interested after all that Bryce has done to keep her at arm's length? Rebecca De Mornay, Aidan Quinn, Anthony Edwards, and Penelope Ann Miller co-star.


imdb.com
Flipped (2010)

Capa
Sinopse:Two eighth-graders start to have feelings for each other despite being total opposites.
Pontuação:7.7
Duração:90 minutos
Idioma:English
Realizador:Rob Reiner
Actores:Madeline Carroll, Callan McAuliffe, Rebecca De Mornay, Anthony Edwards, John Mahoney
  
Fonte:http://www.imdb.com/title/tt0817177
Última Actualização:Segunda Março 12, 2018 11:15


Código: Selecionar todos

General
Complete name                    : Flipped.2010.BDRip.XVID.AC3.HQ.Hive-CM8.avi
Format                           : AVI
Format/Info                      : Audio Video Interleave
File size                        : 1.29 GiB
Duration                         : 1h 29mn
Overall bit rate                 : 2 060 Kbps
Writing application              : Nandub v1.0rc2
Writing library                  : Nandub build 1853/release

Video
ID                               : 0
Format                           : MPEG-4 Visual
Format profile                   : Advanced Simple@L5
Format settings, BVOP            : Yes
Format settings, QPel            : Yes
Format settings, GMC             : No warppoints
Format settings, Matrix          : Default (H.263)
Muxing mode                      : Packed bitstream
Codec ID                         : XVID
Codec ID/Hint                    : XviD
Duration                         : 1h 29mn
Bit rate                         : 1 602 Kbps
Width                            : 720 pixels
Height                           : 400 pixels
Display aspect ratio             : 16:9
Frame rate                       : 23.976 fps
Color space                      : YUV
Chroma subsampling               : 4:2:0
Bit depth                        : 8 bits
Scan type                        : Progressive
Bits/(Pixel*Frame)               : 0.232
Stream size                      : 1.00 GiB (78%)
Writing library                  : XviD 1.2.1 (UTC 2008-12-04)

Audio
ID                               : 1
Format                           : AC-3
Format/Info                      : Audio Coding 3
Mode extension                   : CM (complete main)
Codec ID                         : 2000
Duration                         : 1h 29mn
Bit rate mode                    : Constant
Bit rate                         : 448 Kbps
Channel(s)                       : 6 channels
Channel positions                : Front: L C R, Side: L R, LFE
Sampling rate                    : 48.0 KHz
Bit depth                        : 16 bits
Stream size                      : 288 MiB (22%)
Alignment                        : Split accross interleaves
Interleave, duration             : 42 ms (1.00 video frame)
Interleave, preload duration     : 500 ms








phpBB [video]



ed2k: Flipped.(2010).BDRip.XVID.AC3.HQ.Hive-CM8.avi  [1.29 Gb]

Flipped.2010.BDRip.XVID.AC3.HQ.Hive-CM8.rar
Não tem Permissão para ver os ficheiros anexados nesta mensagem.
Imagem

Responder

Voltar para “Filmes Recentes // Recent Movies (Com Legendas/With Subtitles)”