Afterwards (2008) *480p BRRip* - CHD

Filmes lançados em 2013 e anos seguintes. / Movies launched in 2013 and following years. (Retail DVD)

Moderador: Moderador

Responder
EzPimpinYa

Afterwards (2008) *480p BRRip* - CHD

Mensagem por EzPimpinYa » 30 jun 2010, 06:48

Afterwards (2008)

Imagem


Imagem


Description
Nathan Del Amico, um brilhante advogado Nova Yorkino, que vê sua vida virar de cabeça para baixo após conhecer um médico que afirma sentir quando pessoas estão prestes a morrer. Mesmo não acreditando, alguns eventos fazem Nathan perceber que seu tempo na terra está se esgotando.


Nathan, a brilliant New York lawyer who leads a life of professional success, but his private life is pretty dismal since he divorced Claire, his only love. Until he meets Doctor Kay, a mysterious doctor who introduces himself as a "Messenger." He claims that he can sense when certain people are about to die, and that he is sent to help them put their life in order before it's too late. Nathan doesn't believe a word of this, but soon afterwards he witnesses some disconcerting scenes which seem to confirm the doctor's claims.


Specs

Código: Selecionar todos

General 
Complete name : C:\Program Files\eMule\Incoming\Afterwards.2008.BDRip.480P.x264.AC3-CHD.mkv
Format : Matroska
File size : 1.38 GiB
Duration : 1h 47mn
Overall bit rate : 1 836 Kbps
Encoded date : UTC 2009-12-03 08:36:28
Writing application : mkvmerge v2.2.0 ('Turn It On Again') built on Mar 4 2008 12:58:26
Writing library : libebml v0.7.7 + libmatroska v0.8.1

Video
ID : 1
Format : AVC
Format/Info : Advanced Video Codec
Format profile : High@L3.0
Format settings, CABAC : Yes
Format settings, ReFrames : 3 frames
Muxing mode : Container profile=Unknown@3.0
Codec ID : V_MPEG4/ISO/AVC
Duration : 1h 47mn
Bit rate : 1 449 Kbps
Width : 848 pixels
Height : 368 pixels
Display aspect ratio : 2.35:1
Frame rate : 24.000 fps
Resolution : 8 bits
Colorimetry : 4:2:0
Scan type : Progressive
Bits/(Pixel*Frame) : 0.193
Stream size : 1.07 GiB (77%)
Writing library : x264 core 76 r1271 496d79d
Encoding settings : cabac=1 / ref=3 / deblock=1:-1:-1 / analyse=0x3:0x133 / me=hex / subme=8 / psy=1 / psy_rd=1.0:0.0 / mixed_ref=0 / me_range=16 / chroma_me=1 / trellis=1 / 8x8dct=1 / cqm=0 / deadzone=21,11 / chroma_qp_offset=-2 / threads=6 / nr=0 / decimate=1 / mbaff=0 / bframes=16 / b_pyramid=0 / b_adapt=1 / b_bias=0 / direct=3 / wpredb=1 / keyint=250 / keyint_min=25 / scenecut=40 / rc=2pass / mbtree=0 / bitrate=1449 / ratetol=1.0 / qcomp=0.60 / qpmin=10 / qpmax=51 / qpstep=4 / cplxblur=20.0 / qblur=0.5 / ip_ratio=1.40 / pb_ratio=1.30 / aq=1:1.00

Audio
ID : 2
Format : AC-3
Format/Info : Audio Coding 3
Format_Settings_ModeExtension : CM (complete main)
Codec ID : A_AC3
Duration : 1h 47mn
Bit rate mode : Constant
Bit rate : 384 Kbps
Channel(s) : 6 channels
Channel positions : Front: L C R, Side: L R, LFE
Sampling rate : 48.0 KHz
Stream size : 296 MiB (21%)






ScreenShots
Imagem

Imagem

Imagem

Imagem



ED2K Link
ed2k: Afterwards.2008.BDRip.480P.x264.AC3-CHD.mkv  [1.38 Gb]
Não tem Permissão para ver os ficheiros anexados nesta mensagem.
Última edição por Lost_Rider34 em 19 ago 2010, 16:54, editado 1 vez no total.
Razão: Editado e legendado.

Avatar do Utilizador
Lost_Rider34
Administrador
Administrador
Mensagens: 10690
Registado: 15 out 2008, 14:07
Localização: Aqui
Contacto:

Re: Afterwards (2008) *480p BRRip* - CHD

Mensagem por Lost_Rider34 » 19 ago 2010, 16:55

MOVIDO
Imagem

Imagem

Responder

Voltar para “Filmes Recentes // Recent Movies (Com Legendas/With Subtitles)”