Westbrick Murders (2010) *480p BRRip* - CHD

Filmes lançados em 2013 e anos seguintes. / Movies launched in 2013 and following years. (Retail DVD)

Moderador: Moderador

Responder
EzPimpinYa

Westbrick Murders (2010) *480p BRRip* - CHD

Mensagem por EzPimpinYa » 26 jun 2010, 17:01

Westbrick Murders (2010)

Imagem


Imagem


:portugal: Westbrick é um lugar difícil para se viver. É aqui que o novato policial Matthew vive com sua esposa. Enquanto isso, o notório casal de serial killers Billy e Barbara embarcam em uma onda de assassinatos a fim de obter fama. Seu veterano parceiro William, infelizmente morre no cumprimento do dever, quando ele cruza o caminho dos dois. Mas isso não é suficiente para eles: torturam e assassinam brutalmente a mulher de Matthew. As coisas ficam ainda piores quando ele perde o emprego, sendo injustamente acusado pela morte de William. E agora, acusado de homicídio e isolado, não há motivo para contar com um sistema legal corrupto e muito menos de uma chance de ser declarado inocente. Em busca de vingança, lentamente, transforma-se em um psicopata louco como Billy e Barbara, o que de fato acontece

:english: The town of Westbrick is a rough place to live in. It is here that the young rookie cop Matthew lives with his wife. Meanwhile, notorious serial killers Billy and Barbara embark on a killing spree in order to get notoriety. Matthew gets his first assignment with his much older partner William when he unfortunately crosses paths with Billy and Barbara. William gets killed in the line of duty by Billy and Barbara but that's not enough for them: they torture and brutally murder Matthew's wife. Things get even worse for young Matthew when he loses his job, being wrongfully blamed for William's death and now charged with murder. Matthew finds himself isolated; there is no reason to count on a corrupt legal system and even less of a chance of being found innocent. He goes on a rampage for vengeance and slowly turns into a mad psychopath just like Billy and Barbara.


Specs

Código: Selecionar todos

General 
Complete name : C:\Program Files\eMule\Incoming\westbrick.murders.2010.480p.bdrip.x264.ac3-CHD.mkv
Format : Matroska
File size : 1.37 GiB
Duration : 1h 35mn
Overall bit rate : 2 056 Kbps
Encoded date : UTC 2010-04-30 00:33:35
Writing application : mkvmerge v2.4.0 ('Fumbling Towards Ecstasy') built on Oct 11 2008 20:13:15
Writing library : libebml v0.7.7 + libmatroska v0.8.1

Video
ID : 1
Format : AVC
Format/Info : Advanced Video Codec
Format profile : High@L4.1
Format settings, CABAC : Yes
Format settings, ReFrames : 5 frames
Muxing mode : Container profile=Unknown@4.1
Codec ID : V_MPEG4/ISO/AVC
Duration : 1h 35mn
Bit rate : 1 670 Kbps
Width : 848 pixels
Height : 480 pixels
Display aspect ratio : 16:9
Frame rate : 23.976 fps
Resolution : 8 bits
Colorimetry : 4:2:0
Scan type : Progressive
Bits/(Pixel*Frame) : 0.171
Stream size : 1.09 GiB (79%)
Writing library : x264 core 80 r1376M 3feaec2
Encoding settings : cabac=1 / ref=5 / deblock=1:0:0 / analyse=0x3:0x113 / me=umh / subme=7 / psy=1 / psy_rd=1.0:0.0 / mixed_ref=1 / me_range=16 / chroma_me=1 / trellis=1 / 8x8dct=1 / cqm=0 / deadzone=21,11 / fast_pskip=1 / chroma_qp_offset=-2 / threads=3 / sliced_threads=0 / nr=0 / decimate=1 / mbaff=0 / constrained_intra=0 / bframes=3 / b_pyramid=0 / b_adapt=1 / b_bias=0 / direct=1 / wpredb=1 / wpredp=0 / keyint=250 / keyint_min=25 / scenecut=40 / rc_lookahead=40 / rc=2pass / mbtree=1 / bitrate=1670 / ratetol=1.0 / qcomp=0.60 / qpmin=10 / qpmax=51 / qpstep=4 / cplxblur=20.0 / qblur=0.5 / vbv_maxrate=31250 / vbv_bufsize=31250 / ip_ratio=1.40 / aq=1:1.00

Audio
ID : 2
Format : AC-3
Format/Info : Audio Coding 3
Format_Settings_ModeExtension : CM (complete main)
Codec ID : A_AC3
Duration : 1h 35mn
Bit rate mode : Constant
Bit rate : 384 Kbps
Channel(s) : 6 channels
Channel positions : Front: L C R, Side: L R, LFE
Sampling rate : 48.0 KHz
Stream size : 262 MiB (19%)






ScreenShots
Imagem

Imagem

Imagem

Imagem

Imagem



ED2K Link
ed2k: westbrick.murders.2010.480p.bdrip.x264.ac3-CHD.mkv  [1.37 Gb]
Não tem Permissão para ver os ficheiros anexados nesta mensagem.

Avatar do Utilizador
Lost_Rider34
Administrador
Administrador
Mensagens: 10729
Registado: 15 out 2008, 14:07
Localização: Aqui
Contacto:

Re: Westbrick Murders (2010) *480p BRRip* - CHD

Mensagem por Lost_Rider34 » 26 nov 2010, 09:06

Imagem
Imagem

jomausar
Utilizador
Utilizador
Mensagens: 478
Registado: 06 dez 2008, 11:39

Re: Westbrick Murders (2010) *480p BRRip* - CHD

Mensagem por jomausar » 10 dez 2010, 19:49

Obrigado pelo post
Um abraço e parabens

Responder

Voltar para “Filmes Recentes // Recent Movies (Com Legendas/With Subtitles)”