Surrogates (2009) *BDRip* - CHD

Filmes lançados em 2013 e anos seguintes. / Movies launched in 2013 and following years. (Retail DVD)

Moderador: Moderador

Responder
Avatar do Utilizador
Barefaced
Administrador
Administrador
Mensagens: 36700
Registado: 06 jul 2007, 17:43
Localização: @ Home
Contacto:

Surrogates (2009) *BDRip* - CHD

Mensagem por Barefaced » 29 dez 2009, 23:41

Imagem


Sinopse
Num futuro próximo, os humanos vivem em isolamento e apenas interagem através organismos robóticos (substitutos) para realizar as suas necessidades fora de suas casas. Quando diversas pessoas são assassinadas quando os seus "substitutos" são destruídos, um detective da polícia (Bruce Willis) investiga os crimes usando o seu próprio substituto para melhor ter uma percepção da investigação. Depois de vários encontros quase fatais, o seu "substituto" acaba por ser destruído, e obriga o polícia a deixar o seu isolamento e fisicamente se sair da sua casa para desvendar a conspiração por trás dos crimes.


imdb.com
Surrogates (2009)

Capa
Sinopse:Set in a futuristic world where humans live in isolation and interact through surrogate robots, a cop is forced to leave his home for the first time in years in order to investigate the murders of others' surrogates.
Pontuação:6.3
Duração:89 minutos
Idioma:English
Realizador:Jonathan Mostow
Actores:Bruce Willis, Radha Mitchell, Rosamund Pike, Boris Kodjoe, James Francis Ginty
  
Fonte:http://www.imdb.com/title/tt0986263
Última Actualização:Segunda Março 12, 2018 11:31


Código: Selecionar todos

General
Complete name                    : Surrogates.2009.BDRip.480P.x264.AC3-CHD.mkv
Format                           : Matroska
File size                        : 1.39 GiB
Duration                         : 1h 28mn
Overall bit rate                 : 2 251 Kbps
Encoded date                     : UTC 2009-12-26 06:59:28
Writing application              : mkvmerge v2.2.0 ('Turn It On Again') built on Mar  4 2008 12:58:26
Writing library                  : libebml v0.7.7 + libmatroska v0.8.1

Video
ID                               : 1
Format                           : AVC
Format/Info                      : Advanced Video Codec
Format profile                   : High@L3.0
Format settings, CABAC           : Yes
Format settings, ReFrames        : 3 frames
Muxing mode                      : Container profile=Unknown@3.0
Codec ID                         : V_MPEG4/ISO/AVC
Duration                         : 1h 28mn
Bit rate                         : 1 822 Kbps
Nominal bit rate                 : 1 864 Kbps
Width                            : 848 pixels
Height                           : 352 pixels
Display aspect ratio             : 2.409
Frame rate                       : 23.976 fps
Resolution                       : 24 bits
Colorimetry                      : 4:2:0
Scan type                        : Progressive
Bits/(Pixel*Frame)               : 0.255
Stream size                      : 1.13 GiB (81%)
Writing library                  : x264 core 76 r1271 496d79d
Encoding settings                : cabac=1 / ref=3 / deblock=1:-1:-1 / analyse=0x3:0x133 / me=hex / subme=8 / psy=1 / psy_rd=1.0:0.0 / mixed_ref=0 / me_range=16 / chroma_me=1 / trellis=1 / 8x8dct=1 / cqm=0 / deadzone=21,11 / chroma_qp_offset=-2 / threads=6 / nr=0 / decimate=1 / mbaff=0 / bframes=16 / b_pyramid=0 / b_adapt=1 / b_bias=0 / direct=3 / wpredb=1 / keyint=250 / keyint_min=25 / scenecut=40 / rc=2pass / mbtree=0 / bitrate=1864 / ratetol=1.0 / qcomp=0.60 / qpmin=10 / qpmax=51 / qpstep=4 / cplxblur=20.0 / qblur=0.5 / ip_ratio=1.40 / pb_ratio=1.30 / aq=1:1.00

Audio
ID                               : 2
Format                           : AC-3
Format/Info                      : Audio Coding 3
Codec ID                         : A_AC3
Duration                         : 1h 28mn
Bit rate mode                    : Constant
Bit rate                         : 384 Kbps
Channel(s)                       : 6 channels
Channel positions                : Front: L C R, Surround: L R, LFE
Sampling rate                    : 48.0 KHz
Stream size                      : 243 MiB (17%)



Imagem

Imagem Imagem Imagem Imagem Imagem


ed2k: Surrogates.(2009).BDRip.480p.x264.AC3-CHD.[TheRostrum.net].mkv  [1.39 Gb]
Imagem
Imagem

Responder

Voltar para “Filmes Recentes // Recent Movies (Com Legendas/With Subtitles)”