Halloween II (2009) *480p* *UNRATED BDRip* - CHD

Filmes lançados em 2013 e anos seguintes. / Movies launched in 2013 and following years. (Retail DVD)

Moderador: Moderador

Responder
Avatar do Utilizador
Barefaced
Administrador
Administrador
Mensagens: 35933
Registado: 06 jul 2007, 17:43
Localização: @ Home
Contacto:

Halloween II (2009) *480p* *UNRATED BDRip* - CHD

Mensagem por Barefaced » 29 dez 2009, 23:31

Imagem


Haddonfield, Illinois, 31 de outubro de 1978, noite de Halloween. Michael Myers (Tony Moran) assassina três estudantes e tenta matar Laurie Strode (Jamie Lee Curtis), o que apenas não consegue porque o psiquiatra dela, Samuel Loomis (Donald Pleasence), atirou seis vezes em Myers, que escapou apesar de ter sido baleado. Laurie foi levada para a Haddonfield Memorial, o hospital da localidade, para tratar dos ferimentos e se recuperar do choque, mas começa a questionar por qual razão Michael a perseguiu. Enquanto isso, Loomis e a polícia procuram Michael pela cidade. Ele continua fazendo outras vítimas, mas seu objetivo é ir até o hospital e assassinar Laurie. Há uma razão para esta obsessão doentia, um motivo que nem Loomis sabe ainda.


imdb.com
Halloween II (2009)

Capa
Sinopse:Laurie Strode struggles to come to terms with her brother Michael's deadly return to Haddonfield, Illinois; meanwhile, Michael prepares for another reunion with his sister.
Pontuação:4.9
Duração:105 minutos
Idioma:English
Realizador:Rob Zombie
Actores:Sheri Moon Zombie, Chase Wright Vanek, Scout Taylor-Compton, Brad Dourif, Caroline Williams
  
Fonte:http://www.imdb.com/title/tt1311067
Última Actualização:Segunda Março 12, 2018 09:52


Código: Selecionar todos

General
Complete name                    : Halloween.II.UNRATED.BDRip.480P.x264.AC3-CHD.mkv
Format                           : Matroska
File size                        : 2.09 GiB
Duration                         : 1h 59mn
Overall bit rate                 : 2 513 Kbps
Encoded date                     : UTC 2009-12-25 04:24:34
Writing application              : mkvmerge v2.2.0 ('Turn It On Again') built on Mar  4 2008 12:58:26
Writing library                  : libebml v0.7.7 + libmatroska v0.8.1

Video
ID                               : 1
Format                           : AVC
Format/Info                      : Advanced Video Codec
Format profile                   : High@L3.0
Format settings, CABAC           : Yes
Format settings, ReFrames        : 3 frames
Muxing mode                      : Container profile=Unknown@3.0
Codec ID                         : V_MPEG4/ISO/AVC
Duration                         : 1h 58mn
Bit rate                         : 2 079 Kbps
Nominal bit rate                 : 2 126 Kbps
Width                            : 848 pixels
Height                           : 464 pixels
Display aspect ratio             : 16/9
Frame rate                       : 23.976 fps
Resolution                       : 24 bits
Colorimetry                      : 4:2:0
Scan type                        : Progressive
Bits/(Pixel*Frame)               : 0.220
Stream size                      : 1.73 GiB (83%)
Writing library                  : x264 core 76 r1271 496d79d
Encoding settings                : cabac=1 / ref=3 / deblock=1:-1:-1 / analyse=0x3:0x133 / me=hex / subme=8 / psy=1 / psy_rd=1.0:0.0 / mixed_ref=0 / me_range=16 / chroma_me=1 / trellis=1 / 8x8dct=1 / cqm=0 / deadzone=21,11 / chroma_qp_offset=-2 / threads=6 / nr=0 / decimate=1 / mbaff=0 / bframes=16 / b_pyramid=0 / b_adapt=1 / b_bias=0 / direct=3 / wpredb=1 / keyint=250 / keyint_min=25 / scenecut=40 / rc=2pass / mbtree=0 / bitrate=2126 / ratetol=1.0 / qcomp=0.60 / qpmin=10 / qpmax=51 / qpstep=4 / cplxblur=20.0 / qblur=0.5 / ip_ratio=1.40 / pb_ratio=1.30 / aq=1:1.00

Audio
ID                               : 2
Format                           : AC-3
Format/Info                      : Audio Coding 3
Codec ID                         : A_AC3
Duration                         : 1h 59mn
Bit rate mode                    : Constant
Bit rate                         : 384 Kbps
Channel(s)                       : 6 channels
Channel positions                : Front: L C R, Surround: L R, LFE
Sampling rate                    : 48.0 KHz
Stream size                      : 327 MiB (15%)



Imagem

Imagem Imagem Imagem Imagem Imagem


ed2k: Halloween.II.(2009).UNRATED.BDRip.480p.x264.AC3-CHD.[TheRostrum.net].mkv  [2.09 Gb]
Imagem

Responder

Voltar para “Filmes Recentes // Recent Movies (Com Legendas/With Subtitles)”