Sands of Oblivion (2007) *480p* *BDRip* - CHD

Filmes lançados em 2013 e anos seguintes. / Movies launched in 2013 and following years. (Retail DVD)

Moderador: Moderador

Responder
Avatar do Utilizador
Barefaced
Administrador
Administrador
Mensagens: 35940
Registado: 06 jul 2007, 17:43
Localização: @ Home
Contacto:

Sands of Oblivion (2007) *480p* *BDRip* - CHD

Mensagem por Barefaced » 29 dez 2009, 23:26

Imagem


Depois de filmar "Os Dez Mandamentos", o director Cecil B. DeMille enterrou uma peça do Egipto antigo no deserto da Califórnia. Um grupo que está a fazer escavações no local encontra o objecto e decide ficar com ele sem saber o que os esperava.


imdb.com
Sands of Oblivion (2007)

Capa
Sinopse:In 1923, legendary film Director Cecil B. DeMille finished the epic film, The Ten Commandments (1923). After filming was completed, he bulldozed the sets into the Guadalupe Sand Dunes of ...
Pontuação:3.7
Duração:120 minutos
Idioma:English
Realizador:David Flores
Actores:Morena Baccarin, Adam Baldwin, Victor Webster, George Kennedy, Azie Tesfai
  
Fonte:http://www.imdb.com/title/tt0977663
Última Actualização:Segunda Março 12, 2018 10:19


Código: Selecionar todos

General
Complete name                    : Sands.of.Oblivion.2007.BDRip.480P.x264.AC3-CHD.mkv
Format                           : Matroska
File size                        : 1.39 GiB
Duration                         : 1h 34mn
Overall bit rate                 : 2 112 Kbps
Encoded date                     : UTC 2009-12-21 03:58:37
Writing application              : mkvmerge v2.2.0 ('Turn It On Again') built on Mar  4 2008 12:58:26
Writing library                  : libebml v0.7.7 + libmatroska v0.8.1

Video
ID                               : 1
Format                           : AVC
Format/Info                      : Advanced Video Codec
Format profile                   : High@L3.0
Format settings, CABAC           : Yes
Format settings, ReFrames        : 3 frames
Muxing mode                      : Container profile=Unknown@3.0
Codec ID                         : V_MPEG4/ISO/AVC
Duration                         : 1h 34mn
Bit rate                         : 1 686 Kbps
Nominal bit rate                 : 1 725 Kbps
Width                            : 848 pixels
Height                           : 480 pixels
Display aspect ratio             : 16/9
Frame rate                       : 23.976 fps
Resolution                       : 24 bits
Colorimetry                      : 4:2:0
Scan type                        : Progressive
Bits/(Pixel*Frame)               : 0.173
Stream size                      : 1.11 GiB (80%)
Writing library                  : x264 core 76 r1271 496d79d
Encoding settings                : cabac=1 / ref=3 / deblock=1:-1:-1 / analyse=0x3:0x133 / me=hex / subme=8 / psy=1 / psy_rd=1.0:0.0 / mixed_ref=0 / me_range=16 / chroma_me=1 / trellis=1 / 8x8dct=1 / cqm=0 / deadzone=21,11 / chroma_qp_offset=-2 / threads=6 / nr=0 / decimate=1 / mbaff=0 / bframes=16 / b_pyramid=0 / b_adapt=1 / b_bias=0 / direct=3 / wpredb=1 / keyint=250 / keyint_min=25 / scenecut=40 / rc=2pass / mbtree=0 / bitrate=1725 / ratetol=1.0 / qcomp=0.60 / qpmin=10 / qpmax=51 / qpstep=4 / cplxblur=20.0 / qblur=0.5 / ip_ratio=1.40 / pb_ratio=1.30 / aq=1:1.00

Audio
ID                               : 2
Format                           : AC-3
Format/Info                      : Audio Coding 3
Codec ID                         : A_AC3
Duration                         : 1h 34mn
Bit rate mode                    : Constant
Bit rate                         : 384 Kbps
Channel(s)                       : 6 channels
Channel positions                : Front: L C R, Surround: L R, LFE
Sampling rate                    : 48.0 KHz
Stream size                      : 259 MiB (18%)



Imagem

Imagem Imagem Imagem Imagem Imagem


ed2k: Sands.of.Oblivion.(2007).BDRip.480p.x264.AC3-CHD.[TheRostrum.net].mkv  [1.39 Gb]
Imagem

Responder

Voltar para “Filmes Recentes // Recent Movies (Com Legendas/With Subtitles)”