Hard Candy (2006) *BDRip* - CHD

Filmes lançados em 2013 e anos seguintes. / Movies launched in 2013 and following years. (Retail DVD)

Moderador: Moderador

Responder
Avatar do Utilizador
Barefaced
Administrador
Administrador
Mensagens: 37033
Registado: 06 jul 2007, 17:43
Localização: @ Home
Contacto:

Hard Candy (2006) *BDRip* - CHD

Mensagem por Barefaced » 20 dez 2009, 02:02

Imagem


Sinopse
A esperta e charmosa adolescente Hayley, provavelmente não deveria encontrar-se no café local com Jeff, o fotógrafo de 30 anos que conheceu na Internet. Antes que se dê conta, Hayley vai a caminho de casa dele, e prepara-se para uma inesperada sessão fotográfica. É o dia de sorte de Jeff. Mas Hayley não é tão inocente como parece. Inesperadamente, a presa transforma-se em caçadora quando ela tenta, de forma brutal e violenta, que Jeff confesse o seu passado, presumivelmente escandaloso.


imdb.com
Hard Candy (2005)

Capa
Sinopse:A teenage girl raids a man's home in order to expose him under suspicion that he is a pedophile.
Pontuação:7.1
Duração:104 minutos
Idioma:English
Realizador:David Slade
Actores:Patrick Wilson, Ellen Page, Sandra Oh, Odessa Rae, G.J. Echternkamp
  
Fonte:http://www.imdb.com/title/tt0424136
Última Actualização:Segunda Março 12, 2018 11:02


Código: Selecionar todos

General
Complete name                    : Hard.Candy.2006.BDRip.480p.x264.AC3-CHD.mkv
Format                           : Matroska
File size                        : 1.40 GiB
Duration                         : 1h 39mn
Overall bit rate                 : 2 002 Kbps
Encoded date                     : UTC 2009-12-14 02:06:28
Writing application              : mkvmerge v2.2.0 ('Turn It On Again') built on Mar  4 2008 12:58:26
Writing library                  : libebml v0.7.7 + libmatroska v0.8.1

Video
ID                               : 1
Format                           : AVC
Format/Info                      : Advanced Video Codec
Format profile                   : High@L3.0
Format settings, CABAC           : Yes
Format settings, ReFrames        : 3 frames
Muxing mode                      : Container profile=Unknown@3.0
Codec ID                         : V_MPEG4/ISO/AVC
Duration                         : 1h 39mn
Bit rate                         : 1 578 Kbps
Nominal bit rate                 : 1 615 Kbps
Width                            : 848 pixels
Height                           : 368 pixels
Display aspect ratio             : 2.35
Frame rate                       : 25.000 fps
Resolution                       : 24 bits
Colorimetry                      : 4:2:0
Scan type                        : Progressive
Bits/(Pixel*Frame)               : 0.202
Stream size                      : 1.10 GiB (79%)
Writing library                  : x264 core 76 r1271 496d79d
Encoding settings                : cabac=1 / ref=3 / deblock=1:-1:-1 / analyse=0x3:0x133 / me=hex / subme=8 / psy=1 / psy_rd=1.0:0.0 / mixed_ref=0 / me_range=16 / chroma_me=1 / trellis=1 / 8x8dct=1 / cqm=0 / deadzone=21,11 / chroma_qp_offset=-2 / threads=3 / nr=0 / decimate=1 / mbaff=0 / bframes=16 / b_pyramid=0 / b_adapt=1 / b_bias=0 / direct=3 / wpredb=1 / keyint=250 / keyint_min=25 / scenecut=40 / rc=2pass / mbtree=0 / bitrate=1615 / ratetol=1.0 / qcomp=0.60 / qpmin=10 / qpmax=51 / qpstep=4 / cplxblur=20.0 / qblur=0.5 / ip_ratio=1.40 / pb_ratio=1.30 / aq=1:1.00

Audio
ID                               : 2
Format                           : AC-3
Format/Info                      : Audio Coding 3
Codec ID                         : A_AC3
Duration                         : 1h 39mn
Bit rate mode                    : Constant
Bit rate                         : 384 Kbps
Channel(s)                       : 6 channels
Channel positions                : Front: L C R, Surround: L R, LFE
Sampling rate                    : 48.0 KHz
Stream size                      : 274 MiB (19%)



Imagem

Imagem Imagem Imagem Imagem Imagem


ed2k: Hard.Candy.(2006).BDRip.480p.x264.AC3-CHD.mkv  [1.40 Gb]
Não tem Permissão para ver os ficheiros anexados nesta mensagem.
Imagem
Imagem

Avatar do Utilizador
Lost_Rider34
Administrador
Administrador
Mensagens: 10737
Registado: 15 out 2008, 14:07
Localização: Aqui
Contacto:

Re: Hard Candy (2006) *BDRip* - CHD

Mensagem por Lost_Rider34 » 12 mai 2010, 02:56

Legendas PT
Anexadas
Imagem

Responder

Voltar para “Filmes Recentes // Recent Movies (Com Legendas/With Subtitles)”