The Italian Job (1969) *BDRip* - CHD

Filmes lançados em 2013 e anos seguintes. / Movies launched in 2013 and following years. (Retail DVD)

Moderador: Moderador

Responder
Avatar do Utilizador
Barefaced
Administrador
Administrador
Mensagens: 36325
Registado: 06 jul 2007, 17:43
Localização: @ Home
Contacto:

The Italian Job (1969) *BDRip* - CHD

Mensagem por Barefaced » 11 nov 2009, 02:15




tt0064505


Charlie Croker [Michael Caine] saiu da cadeia e está elaborando um plano genial para o roubo do século. Com a cumplicidade da maior inteligência criminosa, o Sr. Bridger [Noël Coward], Charlie vai à luta com o melhor time de vilões e três mini-coopers muito especiais para surrupiar quatro milhões debaixo do nariz da policia italiana. A questão é que, com a Máfia em seu encalço, Charlie descobre que pegar o dinheiro é moleza...o duro é fugir com ele... Um dos maiores clássicos dos anos 60, com a mais nuca perseguição de carros da história do cinema e um final incrivelmente electrizante; este filme de ação é o melhor golpe de todos os tempos.


Código: Selecionar todos

General
Complete name                    : H:\Classics (1900-1980)\The Italian Job\The.Italian.Job.1969.Bluray.480p.x264.AC3-CHD.mkv
Format                           : Matroska
File size                        : 1.37 GiB
Duration                         : 1h 39mn
Overall bit rate                 : 1 966 Kbps
Encoded date                     : UTC 2009-07-10 05:25:39
Writing application              : mkvmerge v2.2.0 ('Turn It On Again') built on Mar  4 2008 12:58:26
Writing library                  : libebml v0.7.7 + libmatroska v0.8.1

Video
ID                               : 1
Format                           : AVC
Format/Info                      : Advanced Video Codec
Format profile                   : High@L4.1
Format settings, CABAC           : Yes
Format settings, ReFrames        : 3 frames
Muxing mode                      : Container profile=Unknown@4.1
Codec ID                         : V_MPEG4/ISO/AVC
Duration                         : 1h 39mn
Bit rate                         : 1 479 Kbps
Nominal bit rate                 : 1 515 Kbps
Width                            : 848 pixels
Height                           : 360 pixels
Display aspect ratio             : 2.35:1
Frame rate                       : 23.976 fps
Resolution                       : 24 bits
Colorimetry                      : 4:2:0
Scan type                        : Progressive
Bits/(Pixel*Frame)               : 0.202
Stream size                      : 1.03 GiB (75%)
Writing library                  : x264 core 64 r979M 6d4af8d
Encoding settings                : cabac=1 / ref=3 / deblock=1:-3:-3 / analyse=0x3:0x133 / me=umh / subme=7 / psy_rd=0.6:0.0 / brdo=1 / mixed_ref=1 / me_range=16 / chroma_me=1 / trellis=1 / 8x8dct=1 / cqm=2 / deadzone=6,4 / chroma_qp_offset=-4 / threads=2 / nr=0 / decimate=1 / mbaff=0 / bframes=3 / b_pyramid=1 / b_adapt=1 / b_bias=0 / direct=3 / wpredb=1 / bime=1 / keyint=250 / keyint_min=25 / scenecut=40(pre) / rc=2pass / bitrate=1515 / ratetol=1.0 / qcomp=1.00 / qpmin=10 / qpmax=51 / qpstep=4 / cplxblur=20.0 / qblur=0.5 / ip_ratio=1.40 / pb_ratio=1.30 / aq=1:0.50 / zones=0,0,b=0.18

Audio
ID                               : 2
Format                           : AC-3
Format/Info                      : Audio Coding 3
Codec ID                         : A_AC3
Duration                         : 1h 39mn
Bit rate mode                    : Constant
Bit rate                         : 448 Kbps
Channel(s)                       : 6 channels
Channel positions                : Front: L C R, Surround: L R, LFE
Sampling rate                    : 48.0 KHz
Stream size                      : 319 MiB (23%)







Imagem Imagem Imagem Imagem


ed2k: The.Italian.Job.(1969).Bluray.480p.x264.AC3-CHD.mkv  [1.37 Gb]
Imagem
Imagem

Responder

Voltar para “Filmes Recentes // Recent Movies (Com Legendas/With Subtitles)”