Cry Wolf (2005) *480p* *BDRip* - CHD

Filmes lançados em 2013 e anos seguintes. / Movies launched in 2013 and following years. (Retail DVD)

Moderador: Moderador

Responder
Avatar do Utilizador
Barefaced
Administrador
Administrador
Mensagens: 35964
Registado: 06 jul 2007, 17:43
Localização: @ Home
Contacto:

Cry Wolf (2005) *480p* *BDRip* - CHD

Mensagem por Barefaced » 18 jul 2009, 17:59



http://www.imdb.com/title/tt0384286/

Um grupo de alunos do prestigiado colégio Westlake decide espalhar um falso boato na internet sobre um serial killer chamado 'O Lobo'. Com este jogo de mentiras, eles iniciam uma vaga de pânico e terror com três regras: evitar as suspeitas, manipular os amigos e eliminar os inimigos. Aquilo que começa por ser uma brincadeira, onde ninguém sabe quem é o Lobo nem quem são as ovelhas, rapidamente se torna mortífero. Eles não querem ser esventrados mas vão acabar por ser vítimas do seu próprio jogo! Depois de 'Vampiros: Os Mortos' e 'Submarino U-571', este filme marca o regresso de Jon Bon Jovi ao grande ecrã, num thriler aterrador.


Código: Selecionar todos

» Cry_Wolf (2005)
 
Release Date: 16 September 2005 (USA)
Genre: Drama | Horror | Mystery | Thriller
Tagline: BeLIEve
Plot Outline: Eight unsuspecting high school seniors at a posh boarding school, who delight themselves on playing games of lies, come face-to-face with terror and learn that nobody believes a liar - even when they're telling the truth.
User Rating: 5.8/10  (10,486 votes) 
Runtime: 90 min
Language: English
Director: Jeff Wadlow
Cast: Julian Morris, Lindy Booth, Jared Padalecki, Jon Bon Jovi, Sandra McCoy
   
Source: http://www.imdb.com/title/tt0384286/
Last updated: Tue Jul 07, 2009 7:17 pm


Código: Selecionar todos

General
Complete name                    : D:\Emule\[豺狼计划].Cry_Wolf.2005.BluRay.480p.x264.AC3-CHD.mkv
Format                           : Matroska
File size                        : 1.37 GiB
Duration                         : 1h 30mn
Overall bit rate                 : 2 168 Kbps
Encoded date                     : UTC 2009-07-12 08:02:37
Writing application              : mkvmerge v2.2.0 ('Turn It On Again') built on Mar  4 2008 12:58:26
Writing library                  : libebml v0.7.7 + libmatroska v0.8.1

Video
ID                               : 1
Format                           : AVC
Format/Info                      : Advanced Video Codec
Format profile                   : High@L4.1
Format settings, CABAC           : Yes
Format settings, ReFrames        : 3 frames
Muxing mode                      : Container profile=Unknown@4.1
Codec ID                         : V_MPEG4/ISO/AVC
Duration                         : 1h 30mn
Bit rate                         : 1 677 Kbps
Nominal bit rate                 : 1 717 Kbps
Width                            : 848 pixels
Height                           : 352 pixels
Display aspect ratio             : 2.409
Frame rate                       : 24.000 fps
Resolution                       : 24 bits
Colorimetry                      : 4:2:0
Scan type                        : Progressive
Bits/(Pixel*Frame)               : 0.234
Stream size                      : 1.06 GiB (77%)
Writing library                  : x264 core 64 r979M 6d4af8d
Encoding settings                : cabac=1 / ref=3 / deblock=1:-3:-3 / analyse=0x3:0x133 / me=umh / subme=7 / psy_rd=0.6:0.0 / brdo=1 / mixed_ref=1 / me_range=16 / chroma_me=1 / trellis=1 / 8x8dct=1 / cqm=2 / deadzone=6,4 / chroma_qp_offset=-4 / threads=2 / nr=0 / decimate=1 / mbaff=0 / bframes=3 / b_pyramid=1 / b_adapt=1 / b_bias=0 / direct=3 / wpredb=1 / bime=1 / keyint=250 / keyint_min=25 / scenecut=40(pre) / rc=2pass / bitrate=1717 / ratetol=1.0 / qcomp=1.00 / qpmin=10 / qpmax=51 / qpstep=4 / cplxblur=20.0 / qblur=0.5 / ip_ratio=1.40 / pb_ratio=1.30 / aq=1:0.50 / zones=0,0,b=0.18

Audio
ID                               : 2
Format                           : AC-3
Format/Info                      : Audio Coding 3
Codec ID                         : A_AC3
Duration                         : 1h 30mn
Bit rate mode                    : Constant
Bit rate                         : 448 Kbps
Channel(s)                       : 6 channels
Channel positions                : Front: L C R, Surround: L R, LFE
Sampling rate                    : 48.0 KHz
Stream size                      : 289 MiB (21%)





Imagem Imagem Imagem Imagem Imagem


ed2k: Cry_Wolf.(2005).BluRay.480p.x264.AC3-CHD.mkv  [1.37 Gb]
Imagem

Avatar do Utilizador
Lost_Rider34
Administrador
Administrador
Mensagens: 10690
Registado: 15 out 2008, 14:07
Localização: Aqui
Contacto:

Re: Cry Wolf (2005) *480p* *BDRip* - CHD

Mensagem por Lost_Rider34 » 10 nov 2009, 22:20

Editei Tag.

Cumpz.
Imagem

Imagem

Responder

Voltar para “Filmes Recentes // Recent Movies (Com Legendas/With Subtitles)”