The Others (2001) *480p* *BDRip* - CHD

Filmes lançados em 2013 e anos seguintes. / Movies launched in 2013 and following years. (Retail DVD)

Moderador: Moderador

Responder
Avatar do Utilizador
Barefaced
Administrador
Administrador
Mensagens: 36323
Registado: 06 jul 2007, 17:43
Localização: @ Home
Contacto:

The Others (2001) *480p* *BDRip* - CHD

Mensagem por Barefaced » 18 jul 2009, 17:50



http://www.imdb.com/title/tt0230600/

Um filme mundialmente aclamado com 8 prémios Goya e com 2 nomeações para os Globos de Ouro, onde Nicole Kidman oferece uma elegante e nítida representação nesta sofisticada e empolgante visão dramática. Numa ilha isolada, após o fim da 2ª Guerra Mundial, uma mulher de nome Grace (Nicole Kidman) espera em vão pelo regresso do seu marido. Grace tem criado sozinha os seus dois filhos, diagnosticados com uma rara doença que significa que não podem ser expostos directamente à luz solar sem serem gravemente afectados. Vivem constantemente com opressivas e "estranhas" regras em que "nenhuma porta se abrirá sem que a anterior esteja fechada". Tudo muda com a chegada de três misteriosos empregados que farão com que uma série de acontecimentos tenha consequências inesperadas.


Código: Selecionar todos

» The Others (2001)
 
Release Date: 29 November 2001 (Netherlands)
Genre: Horror | Mystery | Thriller
Tagline: Sooner or later she'll see them, then everything will be different.
Plot Outline: A woman who lives in a darkened old house with her two photosensitive children becomes convinced that her family home is haunted.
User Rating: 7.8/10  (76,237 votes) 
Runtime: 101 min | Finland:104 min | USA:104 min
Language: English
Awards: Nominated for Golden Globe. Another 22 wins & 36 nominations
Director: Alejandro Amenábar
Cast: Nicole Kidman, Fionnula Flanagan, Christopher Eccleston, Alakina Mann, James Bentley
   
Source: http://www.imdb.com/title/tt0230600/
Last updated: Sun Jul 12, 2009 1:37 pm


Código: Selecionar todos

General
Complete name                    : D:\Emule\[小岛惊魂].The.Others.2001.BluRay.480p.x264.AC3-CHD.mkv
Format                           : Matroska
File size                        : 1.37 GiB
Duration                         : 1h 44mn
Overall bit rate                 : 1 877 Kbps
Encoded date                     : UTC 2009-07-07 00:50:43
Writing application              : mkvmerge v2.2.0 ('Turn It On Again') built on Mar  4 2008 12:58:26
Writing library                  : libebml v0.7.7 + libmatroska v0.8.1

Video
ID                               : 1
Format                           : AVC
Format/Info                      : Advanced Video Codec
Format profile                   : High@L4.1
Format settings, CABAC           : Yes
Format settings, ReFrames        : 3 frames
Muxing mode                      : Container profile=Unknown@4.1
Codec ID                         : V_MPEG4/ISO/AVC
Duration                         : 1h 44mn
Bit rate                         : 1 392 Kbps
Nominal bit rate                 : 1 426 Kbps
Width                            : 848 pixels
Height                           : 480 pixels
Display aspect ratio             : 16/9
Frame rate                       : 23.976 fps
Resolution                       : 24 bits
Colorimetry                      : 4:2:0
Scan type                        : Progressive
Bits/(Pixel*Frame)               : 0.143
Stream size                      : 1.01 GiB (74%)
Writing library                  : x264 core 64 r979M 6d4af8d
Encoding settings                : cabac=1 / ref=3 / deblock=1:-3:-3 / analyse=0x3:0x133 / me=umh / subme=7 / psy_rd=0.6:0.0 / brdo=1 / mixed_ref=1 / me_range=16 / chroma_me=1 / trellis=1 / 8x8dct=1 / cqm=2 / deadzone=6,4 / chroma_qp_offset=-4 / threads=2 / nr=0 / decimate=1 / mbaff=0 / bframes=3 / b_pyramid=1 / b_adapt=1 / b_bias=0 / direct=3 / wpredb=1 / bime=1 / keyint=250 / keyint_min=25 / scenecut=40(pre) / rc=2pass / bitrate=1426 / ratetol=1.0 / qcomp=1.00 / qpmin=10 / qpmax=51 / qpstep=4 / cplxblur=20.0 / qblur=0.5 / ip_ratio=1.40 / pb_ratio=1.30 / aq=1:0.50 / zones=0,0,b=0.18

Audio
ID                               : 2
Format                           : AC-3
Format/Info                      : Audio Coding 3
Codec ID                         : A_AC3
Duration                         : 1h 44mn
Bit rate mode                    : Constant
Bit rate                         : 448 Kbps
Channel(s)                       : 6 channels
Channel positions                : Front: L C R, Surround: L R, LFE
Sampling rate                    : 48.0 KHz
Stream size                      : 334 MiB (24%)





Imagem Imagem Imagem Imagem Imagem

ed2k: The.Others.(2001).BluRay.480p.x264.AC3-CHD.mkv  [1.37 Gb]
Imagem
Imagem

Avatar do Utilizador
Lost_Rider34
Administrador
Administrador
Mensagens: 10714
Registado: 15 out 2008, 14:07
Localização: Aqui
Contacto:

Re: The Others (2001) *480p* *BDRip* - CHD

Mensagem por Lost_Rider34 » 10 nov 2009, 22:23

Tag editada

Cumpz.
Imagem

Responder

Voltar para “Filmes Recentes // Recent Movies (Com Legendas/With Subtitles)”