Starve (2014) *DVDRip* - RARBG

Filmes lançados em 2013 e anos seguintes. / Movies launched in 2013 and following years. (Retail DVD)

Moderador: Moderador

Responder
Avatar do Utilizador
unusual
eMulePoster
eMulePoster
Mensagens: 5499
Registado: 27 out 2008, 03:40

Starve (2014) *DVDRip* - RARBG

Mensagem por unusual » 27 jul 2015, 21:23

Imagem


Synopsis
Three friends are in Florida to do research on feral children for their upcoming graphic novel. But instead of receiving help from the locals, they get warnings to leave or else, "become part of the story." The trio ignores these warnings and continues their research. While traveling down a deserted highway, their car is attacked and they are captured. The three find themselves prisoners in an abandoned high school controlled by a psychopath named Runyan. The three friends learn they are part of a horrific game where they must kill other captives or starve to death.


imdb.com
Starve (2014)

Capa
Sinopse:While researching an urban legend on feral children, three friends find themselves trapped in an abandoned high school, where they are confronted with an evil more sinister than the legend itself.
Pontuação:4.7
Duração:98 minutos
Idioma:English
Realizador:Griff Furst
Actores:Mariah Bonner, Bobby Campo, Catherine Cappiello, Dave Davis, Casey Dillard
  
Fonte:http://www.imdb.com/title/tt3350890
Última Actualização:Segunda Março 12, 2018 11:31


Código: Selecionar todos

[mediainfo]
Video
ID                                       : 0
Format                                   : MPEG-4 Visual
Format profile                           : Simple@L5
Format settings, BVOP                    : No
Format settings, QPel                    : No
Format settings, GMC                     : No warppoints
Format settings, Matrix                  : Default (H.263)
Codec ID                                 : XVID
Codec ID/Hint                            : XviD
Duration                                 : 1h 41mn
Bit rate                                 : 1 490 Kbps
Width                                    : 704 pixels
Height                                   : 400 pixels
Display aspect ratio                     : 16:9
Frame rate                               : 23.976 fps
Color space                              : YUV
Chroma subsampling                       : 4:2:0
Bit depth                                : 8 bits
Scan type                                : Progressive
Compression mode                         : Lossy
Bits/(Pixel*Frame)                       : 0.221
Stream size                              : 1.06 GiB (88%)
Writing library                          : Lavc56.20.100

Audio
ID                                       : 1
Format                                   : MPEG Audio
Format version                           : Version 1
Format profile                           : Layer 3
Mode                                     : Joint stereo
Codec ID                                 : 55
Codec ID/Hint                            : MP3
Duration                                 : 1h 41mn
Bit rate mode                            : Constant
Bit rate                                 : 192 Kbps
Channel(s)                               : 2 channels
Sampling rate                            : 48.0 KHz
Compression mode                         : Lossy
Stream size                              : 140 MiB (11%)
Alignment                                : Aligned on interleaves
Interleave, duration                     : 24 ms (0.58 video frame)
Interleave, preload duration             : 504 ms



[/mediainfo]



Imagem Imagem
Imagem Imagem
Imagem Imagem


ed2k: Starve.(2014).DVDRip.XviD-RARBG.[TheRostrum.net].avi  [1.21 Gb]

Starve.(2014).DVDRip.XviD-RARBG.rar
Não tem Permissão para ver os ficheiros anexados nesta mensagem.
Imagem
Imagem

Responder

Voltar para “Filmes Recentes // Recent Movies (Com Legendas/With Subtitles)”