Avengers Grimm (2015) *BDRip* - RARBG

Filmes lançados em 2013 e anos seguintes. / Movies launched in 2013 and following years. (Retail DVD)

Moderador: Moderador

Responder
Avatar do Utilizador
p3p3
eMuleCoop
eMuleCoop
Mensagens: 1392
Registado: 27 mar 2008, 11:31
Localização: Entalado entre a Galiza e o Norte de Portugal
Contacto:

Avengers Grimm (2015) *BDRip* - RARBG

Mensagem por p3p3 » 05 mai 2015, 23:00

Imagem


Synopsis
Quando Rumpelstiltskin (Casper Van Dien) destrói o espelho mágico e foge para o mundo moderno, as quatro princesas de "Once Upon a Time", Cinderella, Bela Adormecida, Branca de Neve e Rapunzel, são sugadas através do portal também. Bem treinadas e dotadas de poderes mágicos, as quatro mulheres terão de lutar contra Rumpelstiltskin e o seu exército de escravos antes que ele consiga escravizar todos na Terra.

When Rumpelstiltskin (Casper Van Dien) destroys the Magic Mirror and escapes to the modern world, the four princesses of "Once Upon a Time"-Cinderella, Sleeping Beauty, Snow White, and Rapunzel-are sucked through the portal too. Well-trained and endowed with magical powers, the four women must fight Rumpelstiltskin and his army of thralls before he enslaves everyone on Earth.


imdb.com
Avengers Grimm (2015)

Capa
Sinopse:When Rumpelstiltskin destroys the Magic Mirror and escapes to the modern world, the four princesses of "Once Upon a Time"-Cinderella, Sleeping Beauty, Snow White, and Rapunzel-are sucked ...
Pontuação:2.7
Duração:86 minutos
Idioma:English
Realizador:Jeremy M. Inman
Actores:Casper Van Dien, Lauren Parkinson, Lou Ferrigno, Milynn Sarley, Marah Fairclough
  
Fonte:http://www.imdb.com/title/tt4296026
Última Actualização:Segunda Março 12, 2018 10:55


Código: Selecionar todos

Video
 ID                                       : 0
 Format                                   : MPEG-4 Visual
 Format profile                           : Simple@L5
 Format settings, BVOP                    : No
 Format settings, QPel                    : No
 Format settings, GMC                     : No warppoints
 Format settings, Matrix                  : Default (H.263)
 Codec ID                                 : XVID
 Codec ID/Hint                            : XviD
 Duration                                 : 1h 25mn
 Bit rate                                 : 1 599 Kbps
 Width                                    : 720 pixels
 Height                                   : 400 pixels
 Display aspect ratio                     : 16:9
 Frame rate                               : 23.976 fps
 Color space                              : YUV
 Chroma subsampling                       : 4:2:0
 Bit depth                                : 8 bits
 Scan type                                : Progressive
 Compression mode                         : Lossy
 Bits/(Pixel*Frame)                       : 0.232
 Stream size                              : 977 MiB (78%)
 Writing library                          : Lavc56.19.100

 Audio
 ID                                       : 1
 Format                                   : AC-3
 Format/Info                              : Audio Coding 3
 Mode extension                           : CM (complete main)
 Format settings, Endianness              : Big
 Codec ID                                 : 2000
 Duration                                 : 1h 25mn
 Bit rate mode                            : Constant
 Bit rate                                 : 448 Kbps
 Channel(s)                               : 6 channels
 Channel positions                        : Front: L C R, Side: L R, LFE
 Sampling rate                            : 48.0 KHz
 Bit depth                                : 16 bits
 Compression mode                         : Lossy
 Stream size                              : 274 MiB (22%)
 Alignment                                : Aligned on interleaves
 Interleave, duration                     : 42 ms (1.00 video frame)
 Interleave, preload duration             : 512 ms



Imagem Imagem
Imagem Imagem
Imagem Imagem
Imagem Imagem


ed2k: Avengers.Grimm.(2015).BDRip.AC3.XviD-RARBG.avi  [1.23 Gb]

Avengers.Grimm.(2015).BDRip.AC3.XviD-RARBG.rar
Não tem Permissão para ver os ficheiros anexados nesta mensagem.

giraldino
Utilizador
Utilizador
Mensagens: 2883
Registado: 22 dez 2010, 22:24

Re: Avengers Grimm (2015) *BDRip* - RARBG

Mensagem por giraldino » 06 mai 2015, 09:30

:goodpost: Muito obrigado.

Avatar do Utilizador
coutinho
Utilizador
Utilizador
Mensagens: 1505
Registado: 26 out 2011, 11:06

Re: Avengers Grimm (2015) *BDRip* - RARBG

Mensagem por coutinho » 06 mai 2015, 09:47

Já está a sair. Obrigado

crescenc
Utilizador
Utilizador
Mensagens: 191
Registado: 14 mar 2009, 14:01

Re: Avengers Grimm (2015) *BDRip* - RARBG

Mensagem por crescenc » 07 mai 2015, 00:07

:cavalinho:

bloodrayne
Utilizador
Utilizador
Mensagens: 613
Registado: 19 jan 2009, 15:44

Re: Avengers Grimm (2015) *BDRip* - RARBG

Mensagem por bloodrayne » 21 jun 2015, 11:37

:goodpost: :banana:

Responder

Voltar para “Filmes Recentes // Recent Movies (Com Legendas/With Subtitles)”