Paddington (2014) *BDRip* - RARBG

Filmes lançados em 2013 e anos seguintes. / Movies launched in 2013 and following years. (Retail DVD)

Moderador: Moderador

Responder
Avatar do Utilizador
p3p3
eMuleCoop
eMuleCoop
Mensagens: 1392
Registado: 27 mar 2008, 11:31
Localização: Entalado entre a Galiza e o Norte de Portugal
Contacto:

Paddington (2014) *BDRip* - RARBG

Mensagem por p3p3 » 25 mar 2015, 03:45

Imagem


Synopsis
Paddington (voz de Ben Whishaw) foi criado na floresta do Peru pelos tios Pastuzo (voz de Michael Gambon) e Luzy (voz de Imelda Staunton), mas um terramoto acaba por separar o trio. Face a disto, o pequeno urso é enviado pela tia para Londres, local onde mora um explorador que visitou o Peru décadas atrás. Paddington faz a viagem clandestinamente e, ao chegar, acaba por ir para uma estação de comboios onde conhece a família Brown, que decide ajudá-lo a encontrar o tal explorador. Só que a vida na civilização e entre humanos não é tão simples assim.

Paddington has grown up deep in the Peruvian jungle with his Aunt Lucy who, inspired by a chance encounter with an English explorer, has raised her nephew to dream of an exciting life in London. When an earthquake destroys their home, Aunt Lucy decides to smuggle her young nephew on board a boat bound for England, in search of a better life. Arriving alone at Paddington Station, Paddington soon finds that city life is not all he had imagined – until he meets the kindly Brown family, who find him with a label tied around his neck which reads ‘Please look after this bear. Thank you.’ They offer him a temporary home whilst he searches for the explorer who impressed Aunt Lucy all those years before.


imdb.com
Paddington (2014)

Capa
Sinopse:A young Peruvian bear travels to London in search of a home. Finding himself lost and alone at Paddington Station, he meets the kindly Brown family, who offer him a temporary haven.
Pontuação:7.2
Duração:95 minutos
Idioma:English
Realizador:Paul King
Actores:Tim Downie, Madeleine Worrall, Lottie Steer, Geoffrey Palmer, Theresa Watson
  
Fonte:http://www.imdb.com/title/tt1109624
Última Actualização:Segunda Março 12, 2018 07:51


Código: Selecionar todos

Video
 ID                                       : 0
 Format                                   : MPEG-4 Visual
 Format profile                           : Simple@L5
 Format settings, BVOP                    : No
 Format settings, QPel                    : No
 Format settings, GMC                     : No warppoints
 Format settings, Matrix                  : Default (H.263)
 Codec ID                                 : XVID
 Codec ID/Hint                            : XviD
 Duration                                 : 1h 35mn
 Bit rate                                 : 1 597 Kbps
 Width                                    : 720 pixels
 Height                                   : 302 pixels
 Display aspect ratio                     : 2.40:1
 Frame rate                               : 23.976 fps
 Color space                              : YUV
 Chroma subsampling                       : 4:2:0
 Bit depth                                : 8 bits
 Scan type                                : Progressive
 Compression mode                         : Lossy
 Bits/(Pixel*Frame)                       : 0.306
 Stream size                              : 1.06 GiB (78%)
 Writing library                          : Lavc56.19.100

 Audio
 ID                                       : 1
 Format                                   : AC-3
 Format/Info                              : Audio Coding 3
 Mode extension                           : CM (complete main)
 Format settings, Endianness              : Big
 Codec ID                                 : 2000
 Duration                                 : 1h 35mn
 Bit rate mode                            : Constant
 Bit rate                                 : 448 Kbps
 Channel(s)                               : 6 channels
 Channel positions                        : Front: L C R, Side: L R, LFE
 Sampling rate                            : 48.0 KHz
 Bit depth                                : 16 bits
 Compression mode                         : Lossy
 Stream size                              : 305 MiB (22%)
 Alignment                                : Aligned on interleaves
 Interleave, duration                     : 42 ms (1.00 video frame)
 Interleave, preload duration             : 512 ms



Imagem Imagem
Imagem Imagem
Imagem Imagem
Imagem Imagem


ed2k: Paddington.(2014).BDRip.AC3.XviD-RARBG.avi  [1.37 Gb]

Paddington.(2014).BDRip.AC3.XviD-RARBG.rar
Não tem Permissão para ver os ficheiros anexados nesta mensagem.

Responder

Voltar para “Filmes Recentes // Recent Movies (Com Legendas/With Subtitles)”