Two Men in Town (2014) *BDRip* - RARBG

Filmes lançados em 2013 e anos seguintes. / Movies launched in 2013 and following years. (Retail DVD)

Moderador: Moderador

Responder
Avatar do Utilizador
p3p3
eMuleCoop
eMuleCoop
Mensagens: 1392
Registado: 27 mar 2008, 11:31
Localização: Entalado entre a Galiza e o Norte de Portugal
Contacto:

Two Men in Town (2014) *BDRip* - RARBG

Mensagem por p3p3 » 25 jan 2015, 15:48

Imagem


Synopsis
Uma pequena cidade do Novo México, cercada pelo deserto, apresenta uma onda crescente de mortes, seja por assassinato, seja pela sede. O presidiário William Garnet (Forest Whitaker) acaba de ser libertado. Graças à sua fé muçulmana, ele tem um comportamento exemplar e com a ajuda do agente da penitenciária, inicia uma nova vida na cidade. Mas devido a desentendimentos do passado, um Xerife e o seu cúmplice estão a conspirar contra o ex-presidiário. Garnett encontra apoio no oficial da penitenciária, na sua fé e num novo amor.

A small town in Texas surrounded by desert which, time and again as the day breaks, disgorges an increasing number of Mexicans who have either been murdered or have died of thirst. A convict is released from prison. Thanks to his new-found Muslim faith, William Garnett’s behaviour has been exemplary and, with the aid of a sympathetic parole officer, he begins a new life in the town. But his past is well-known and before long, a sheriff bent on revenge and an ex-crony from the underworld are both breathing down his neck.


imdb.com
Two Men in Town (2014)

Capa
Sinopse:A Muslim ex-con forms a friendship with his parole officer.
Pontuação:5.7
Duração:120 minutos
Idioma:English
Realizador:Rachid Bouchareb
Actores:Forest Whitaker, Ellen Burstyn, Harvey Keitel, Brenda Blethyn, Reg E. Cathey
  
Fonte:http://www.imdb.com/title/tt2258285
Última Actualização:Segunda Março 12, 2018 08:46


Código: Selecionar todos

Format                                   : MPEG-4
 Format profile                           : Base Media
 Codec ID                                 : isom
 File size                                : 1 021 MiB
 Duration                                 : 1h 56mn
 Overall bit rate                         : 1 221 Kbps
 Movie name                               : RARBG.COM - Two.Men.in.Town.2014.BRRip.x264-RARBG
 Writing application                      : Lavf56.3.100
 Comment                                  : RARBG.COM - Two.Men.in.Town.2014.BRRip.x264-RARBG

 Video
 ID                                       : 1
 Format                                   : AVC
 Format/Info                              : Advanced Video Codec
 Format profile                           : High@L3.1
 Format settings, CABAC                   : Yes
 Format settings, ReFrames                : 5 frames
 Codec ID                                 : avc1
 Codec ID/Info                            : Advanced Video Coding
 Duration                                 : 1h 56mn
 Bit rate                                 : 1 100 Kbps
 Width                                    : 720 pixels
 Height                                   : 304 pixels
 Display aspect ratio                     : 2.40:1
 Original display aspect ratio            : 2.40:1
 Frame rate mode                          : Constant
 Frame rate                               : 23.976 fps
 Color space                              : YUV
 Chroma subsampling                       : 4:2:0
 Bit depth                                : 8 bits
 Scan type                                : Progressive
 Bits/(Pixel*Frame)                       : 0.210
 Stream size                              : 909 MiB (89%)
 Writing library                          : x264 core 142 r2455 021c0dc
 Encoding settings                        : cabac=1 / ref=5 / deblock=1:-2:-2 / analyse=0x3:0x113 / me=umh / subme=8 / psy=1 / psy_rd=0.90:0.00 / mixed_ref=1 / me_range=16 / chroma_me=1 / trellis=1 / 8x8dct=1 / cqm=0 / deadzone=21,11 / fast_pskip=1 / chroma_qp_offset=-2 / threads=8 / lookahead_threads=2 / sliced_threads=0 / nr=0 / decimate=1 / interlaced=0 / bluray_compat=0 / constrained_intra=0 / bframes=3 / b_pyramid=2 / b_adapt=2 / b_bias=0 / direct=3 / weightb=1 / open_gop=0 / weightp=2 / keyint=250 / keyint_min=25 / scenecut=40 / intra_refresh=0 / rc_lookahead=50 / rc=abr / mbtree=1 / bitrate=1100 / ratetol=1.0 / qcomp=0.60 / qpmin=0 / qpmax=69 / qpstep=4 / vbv_maxrate=31250 / vbv_bufsize=31250 / nal_hrd=none / filler=0 / ip_ratio=1.40 / aq=1:1.00
 Language                                 : English

 Audio
 ID                                       : 2
 Format                                   : AAC
 Format/Info                              : Advanced Audio Codec
 Format profile                           : LC
 Codec ID                                 : 40
 Duration                                 : 1h 56mn
 Duration_LastFrame                       : 32ms
 Bit rate mode                            : Constant
 Bit rate                                 : 128 Kbps
 Channel(s)                               : 6 channels
 Channel positions                        : Front: L C R, Side: L R, LFE
 Sampling rate                            : 48.0 KHz
 Compression mode                         : Lossy
 Stream size                              : 107 MiB (10%)
 Language                                 : English


Notes:
 Greetz to everyone :)



Imagem Imagem
Imagem Imagem
Imagem Imagem


ed2k: Two.Men.in.Town.(2014).BRRip.x264-RARBG.mp4  [1020.62 Mb]

Two.Men.in.Town.(2014).BRRip.x264-RARBG.rar
Não tem Permissão para ver os ficheiros anexados nesta mensagem.

beto2701
Utilizador
Utilizador
Mensagens: 163
Registado: 20 jun 2013, 14:09

Re: Two Men in Town (2014) *BDRip* - RARBG

Mensagem por beto2701 » 26 jan 2015, 06:01

Obrigado.

Responder

Voltar para “Filmes Recentes // Recent Movies (Com Legendas/With Subtitles)”