The Anomaly (2014) *DVDRip* - RARBG

Filmes lançados em 2013 e anos seguintes. / Movies launched in 2013 and following years. (Retail DVD)

Moderador: Moderador

Responder
Avatar do Utilizador
pinote
eMuleCoop
eMuleCoop
Mensagens: 1142
Registado: 13 jun 2009, 05:16
Localização: Sempre perto de quem precisa de mim.
Contacto:

The Anomaly (2014) *DVDRip* - RARBG

Mensagem por pinote » 13 out 2014, 11:47

Imagem


Synopsis
Um ex-soldado é levado cativo e acorda na traseira de uma van, junto com um garoto sequestrado, onde ele descobre que tem apenas alguns segundos de consciência para descobrir como ele chegou lá.

Set in the near future a former soldier is taken captive and awakens in the back of a van with no memory of how he got there. Accused of kidnapping a child Ryan tries to put the pieces together but nine minutes and forty seven seconds later he loses consciousness again. Under impossible circumstances he has no choice but to search for the answers to the mystery behind his memory losses. The Anomaly is a unique sci-fi thriller that explores the idea of mind control.


imdb.com
The Anomaly (2014)

Capa
Sinopse:An ex-soldier named Ryan Reeve is taken captive by the "Anomaly" organization where he learns that he only has 9:47 minutes/seconds to find out why they want him dead.
Pontuação:4.8
Duração:97 minutos
Idioma:English
Realizador:Noel Clarke
Actores:Noel Clarke, Ian Somerhalder, Brian Cox, Alexis Knapp, Luke Hemsworth
  
Fonte:http://www.imdb.com/title/tt2962726
Última Actualização:Segunda Março 12, 2018 09:21


Código: Selecionar todos

Format                                   : AVI
 Format/Info                              : Audio Video Interleave
 File size                                : 983 MiB
 Duration                                 : 1h 32mn
 Overall bit rate                         : 1 483 Kbps
 Movie name                               : RARBG.COM - The.Anomaly.2014.DVDRip.XviD.MP3-RARBG
 Writing library                          : VirtualDub build 35491/release
 Comment                                  : RARBG.COM - The.Anomaly.2014.DVDRip.XviD.MP3-RARBG

 Video
 ID                                       : 0
 Format                                   : MPEG-4 Visual
 Format profile                           : Simple@L5
 Format settings, BVOP                    : No
 Format settings, QPel                    : No
 Format settings, GMC                     : No warppoints
 Format settings, Matrix                  : Default (H.263)
 Codec ID                                 : XVID
 Codec ID/Hint                            : XviD
 Duration                                 : 1h 32mn
 Bit rate                                 : 1 279 Kbps
 Width                                    : 720 pixels
 Height                                   : 304 pixels
 Display aspect ratio                     : 2.35:1
 Frame rate                               : 25.000 fps
 Color space                              : YUV
 Chroma subsampling                       : 4:2:0
 Bit depth                                : 8 bits
 Scan type                                : Progressive
 Compression mode                         : Lossy
 Bits/(Pixel*Frame)                       : 0.234
 Stream size                              : 848 MiB (86%)
 Writing library                          : Lavc56.1.100

 Audio
 ID                                       : 1
 Format                                   : MPEG Audio
 Format version                           : Version 1
 Format profile                           : Layer 3
 Mode                                     : Joint stereo
 Mode extension                           : MS Stereo
 Codec ID                                 : 55
 Codec ID/Hint                            : MP3
 Duration                                 : 1h 32mn
 Bit rate mode                            : Constant
 Bit rate                                 : 192 Kbps
 Channel(s)                               : 2 channels
 Sampling rate                            : 48.0 KHz
 Compression mode                         : Lossy
 Stream size                              : 127 MiB (13%)
 Alignment                                : Aligned on interleaves
 Interleave, duration                     : 24 ms (0.60 video frame)
 Interleave, preload duration             : 504 ms
 Writing library                          : LAME3.99.5



Imagem Imagem
Imagem Imagem
Imagem Imagem


phpBB [video]



ed2k: The.Anomaly.(2014).DVDRip.XviD-RARBG.avi  [983.46 Mb]

The.Anomaly.(2014).DVDRip.XviD-RARBG.rar
Não tem Permissão para ver os ficheiros anexados nesta mensagem.
Imagem
Imagem
UPLOADER

Avatar do Utilizador
MuMuGoN
eMuleCoop
eMuleCoop
Mensagens: 582
Registado: 23 jul 2012, 02:08

Re: The Anomaly (2014) *DVDRip* - RARBG

Mensagem por MuMuGoN » 13 out 2014, 17:00

Legenda Pt-Br mais Trailer
Sim eu sou mal educado e não agradeço/comento qdo clico em algo.

Avatar do Utilizador
tueunos
Utilizador
Utilizador
Mensagens: 7609
Registado: 17 mai 2008, 21:31
Localização: Algures Planeta Terra

Re: The Anomaly (2014) *DVDRip* - RARBG

Mensagem por tueunos » 13 out 2014, 21:07

Sinopse adicionada.


Legenda Pt/Br anexada e trailer enviado por MuMuGoN.
Imagem

"A vida é uma pedra de amolar: desgasta-nos ou afia-nos, conforme o metal de que somos feitos."

"Eu sou responsável pelo que digo, não pelo que as pessoas entendem."

tuelo
Utilizador
Utilizador
Mensagens: 265
Registado: 12 nov 2011, 15:04

Re: The Anomaly (2014) *DVDRip* - RARBG

Mensagem por tuelo » 13 out 2014, 23:36

gostei obrigado.

giraldino
Utilizador
Utilizador
Mensagens: 2885
Registado: 22 dez 2010, 22:24

Re: The Anomaly (2014) *DVDRip* - RARBG

Mensagem por giraldino » 14 out 2014, 01:35

:goodpost:
Obrigado.

crescenc
Utilizador
Utilizador
Mensagens: 191
Registado: 14 mar 2009, 14:01

Re: The Anomaly (2014) *DVDRip* - RARBG

Mensagem por crescenc » 14 out 2014, 12:51

clicado
grato

Responder

Voltar para “Filmes Recentes // Recent Movies (Com Legendas/With Subtitles)”