Brick Mansions (2014) *DVDRip* - MiLLENiUM

Filmes lançados em 2013 e anos seguintes. / Movies launched in 2013 and following years. (Retail DVD)

Moderador: Moderador

Responder
Avatar do Utilizador
pinote
eMuleCoop
eMuleCoop
Mensagens: 1140
Registado: 13 jun 2009, 05:16
Localização: Sempre perto de quem precisa de mim.
Contacto:

Brick Mansions (2014) *DVDRip* - MiLLENiUM

Mensagem por pinote » 15 jul 2014, 01:19

Imagem


Synopsis
Brick Mansions é uma área da cidade de Detroit onde a violência tem índices altíssimos, o que fez com que a prefeitura local praticamente abandonasse o local à própria sorte. Com isso, traficantes como Tremaine Alexander (RZA) ganharam status e poder, por mais que sejam combatidos por Lino (David Belle), um especialista em le parkour que tenta erradicar as drogas do local. Entretanto, Lino tem problemas com a polícia, corrompida pelo crime organizado, o que faz com que seja preso. Um dos poucos que tentam realmente seguir as leis é Damien Collier (Paul Walker), um detetive que recebe como missão entrar em Brick Mansions para resgatar uma bomba que pode matar milhões. Para tanto, ele precisa contar com a ajuda de Lino, que deseja retornar ao local para resgatar Lola (Catalina Denis), sua namorada, que foi raptada pelos capangas de Tremaine.

In a dystopian Detroit, abandoned brick mansions left from better times now house only the most dangerous criminals. Unable to control the crime, the police constructed a colossal containment wall around this area to protect the rest of the city. Undercover cop Damien Collier (Paul Walker) is determined to bring his father’s killer, Tremaine (RZA) to justice and every day is a battle against corruption. For Lino (David Belle), every day is a fight to live an honest life. Their paths never should have crossed, but when Tremaine kidnaps Lino’s girlfriend, Damien reluctantly accepts the help of the fearless ex-convict, and together they must stop a sinister plot to devastate the entire city. With stylized action featuring thrilling Parkour stunts (David Belle is the co-founder of this physical training discipline), Brick Mansions puts an entertaining twist on the action genre.


imdb.com
Brick Mansions (2014)

Capa
Sinopse:An undercover Detroit cop navigates a dangerous neighborhood that's surrounded by a containment wall with the help of an ex-con in order to bring down a crime lord and his plot to devastate the entire city.
Pontuação:5.7
Duração:90 minutos
Idioma:English, Chinese
Realizador:Camille Delamarre
Actores:Paul Walker, David Belle, RZA, Goûchy Boy, Catalina Denis
  
Fonte:http://www.imdb.com/title/tt1430612
Última Actualização:Segunda Março 12, 2018 09:04


NFO:
Imagem


Brick Mansions 2014 DVDRip x264 AC3-MiLLENiUM


General

Source...............: NTSC.DVDR [THANKS]
IMDb Information.... : http://www.imdb.com/title/tt1430612/
Sample Included......: yes

General
Complete name : Brick Mansions 2014 DVDRip x264 AC3-MiLLENiUM.mkv
Format : Matroska
Format version : Version 2
File size : 1.33 GiB
Duration : 1h 30mn
Overall bit rate mode : Variable
Overall bit rate : 2 110 Kbps
Encoded date : UTC 2014-07-14 12:36:11
Writing application : mkvmerge v7.0.0 ('Where We Going') 32bit built on Jun 9 2014 15:08:34
Writing library : libebml v1.3.0 + libmatroska v1.4.1

Video
ID : 1
Format : AVC
Format/Info : Advanced Video Codec
Format profile : High@L4.1
Format settings, CABAC : Yes
Format settings, ReFrames : 3 frames
Codec ID : V_MPEG4/ISO/AVC
Duration : 1h 30mn
Bit rate mode : Variable
Bit rate : 1 620 Kbps
Maximum bit rate : 40.0 Mbps
Width : 720 pixels
Height : 304 pixels
Display aspect ratio : 2.35:1
Frame rate mode : Constant
Frame rate : 23.976 fps
Color space : YUV
Chroma subsampling : 4:2:0
Bit depth : 8 bits
Scan type : Progressive
Bits/(Pixel*Frame) : 0.309
Stream size : 1.02 GiB (77%)
Writing library : x264 core 142 r2431 ac76440

Audio
ID : 2
Format : AC-3
Format/Info : Audio Coding 3
Mode extension : CM (complete main)
Format settings, Endianness : Big
Codec ID : A_AC3
Duration : 1h 30mn
Bit rate mode : Constant
Bit rate : 448 Kbps
Channel(s) : 6 channels
Channel positions : Front: L C R, Side: L R, LFE
Sampling rate : 48.0 KHz
Bit depth : 16 bits
Compression mode : Lossy
Stream size : 289 MiB (21%)
Language : English
Default : Yes
Forced : No


Plot

An undercover Detroit cop navigates a dangerous neighborhood that's surrounded by a containment wall with the help
of an ex-con in order to bring down a crime lord and his plot to devastate the entire city.


Screenshots

Imagem
Imagem
Imagem
Imagem
Imagem
Imagem
Imagem



Imagem Imagem
Imagem Imagem
Imagem Imagem


ed2k: Brick.Mansions.(2014).DVDRip.AC3.x264-MiLLENiUM.mkv  [1.33 Gb]

Brick.Mansions.(2014).DVDRip.AC3.x264-MiLLENiUM.rar
Não tem Permissão para ver os ficheiros anexados nesta mensagem.
Imagem
Imagem
UPLOADER

giraldino
Utilizador
Utilizador
Mensagens: 2862
Registado: 22 dez 2010, 22:24

Re: Brick Mansions (2014) *DVDRip* - MiLLENiUM

Mensagem por giraldino » 15 jul 2014, 18:50

:goodpost:
Muito obrigado.

Responder

Voltar para “Filmes Recentes // Recent Movies (Com Legendas/With Subtitles)”