Blutgletscher (2013) *480p BDRip* - HDx

Filmes lançados em 2013 e anos seguintes. / Movies launched in 2013 and following years. (Retail DVD)

Moderador: Moderador

Responder
Avatar do Utilizador
quiZZical
eMulePoster
eMulePoster
Mensagens: 4840
Registado: 28 jul 2011, 19:30

Blutgletscher (2013) *480p BDRip* - HDx

Mensagem por quiZZical » 02 jun 2014, 17:28

Imagem


Synopsis
Trabalhando num posto remoto nos Alpes alemães, o técnico Janek e um grupo de cientistas ficam surpresos ao descobrir um glaciar a derramar sangue do alto da montanha. Conforme o gelo do glaciar infectado derrete, o sangue atrai a fauna local e transforma-os em monstruosas mutações híbridas infernais. Assim que esta fusão de criaturas terríveis evolui no ar revigorante da montanha, um segundo grupo, que inclui a ex-namorada de Janek, avança em direção à base na qual se dará o confronto entre humanos e a natureza povoada por piolhos de madeira gigantes, besouros-raposa, predadores voadores híbridos e coisas muito, muito piores...

At a remote weather research station in the German Alps, three scientists and a technician monitor and study the climate and the ramifications of rapid weather changes on our world. On the eve of a visit by an important government minister, they discover that a rapidly retreating glacier has begun to leak a strange red liquid. The mysterious compound seems to be affecting local wildlife at a genetic level, and soon it will be up to reclusive technician Janek (Gerhard Liebmann) to defend the group from the biological monstrosities growing just beyond the walls of their tiny outpost.


imdb.com
Blood Glacier (2013)

Capa
Sinopse:Scientists working in the Austrian Alps discover that a glacier is leaking a liquid that appears to be affecting local wildlife.
Pontuação:5.4
Duração:98 minutos
Idioma:German
Realizador:Marvin Kren
Actores:Gerhard Liebmann, Edita Malovcic, Santos, Hille Beseler, Peter Knaack
  
Fonte:http://www.imdb.com/title/tt2299206
Última Actualização:Segunda Março 12, 2018 07:24


Código: Selecionar todos

General
Complete name                            : E:\eMule\Blood.Glacier.(2013).480p.BRRip.XviD.AC3-HDx.[TheRostrum.net].avi
Format                                   : AVI
Format/Info                              : Audio Video Interleave
File size                                : 1.33 GiB
Duration                                 : 1h 37mn
Overall bit rate                         : 1 953 Kbps

Video
ID                                       : 0
Format                                   : MPEG-4 Visual
Format profile                           : Advanced Simple@L5
Format settings, BVOP                    : 2
Format settings, QPel                    : No
Format settings, GMC                     : No warppoints
Format settings, Matrix                  : Default (H.263)
Muxing mode                              : Packed bitstream
Codec ID                                 : XVID
Codec ID/Hint                            : XviD
Duration                                 : 1h 37mn
Bit rate                                 : 1 505 Kbps
Width                                    : 720 pixels
Height                                   : 304 pixels
Display aspect ratio                     : 2.35:1
Frame rate                               : 24.000 fps
Color space                              : YUV
Chroma subsampling                       : 4:2:0
Bit depth                                : 8 bits
Scan type                                : Progressive
Compression mode                         : Lossy
Bits/(Pixel*Frame)                       : 0.286
Stream size                              : 1.02 GiB (77%)
Writing library                          : XviD 64

Audio
ID                                       : 1
Format                                   : AC-3
Format/Info                              : Audio Coding 3
Mode extension                           : CM (complete main)
Format settings, Endianness              : Big
Codec ID                                 : 2000
Duration                                 : 1h 35mn
Bit rate mode                            : Constant
Bit rate                                 : 448 Kbps
Channel(s)                               : 6 channels
Channel positions                        : Front: L C R, Side: L R, LFE
Sampling rate                            : 48.0 KHz
Bit depth                                : 16 bits
Compression mode                         : Lossy
Stream size                              : 306 MiB (23%)
Alignment                                : Aligned on interleaves
Interleave, duration                     : 65 ms (1.56 video frames)
Interleave, preload duration             : 192 ms
Title                                    : encounters-blutgletscher_1080p (1) - [0] German 0ms



Imagem Imagem
Imagem Imagem
Imagem Imagem
Imagem Imagem


ed2k: Blood.Glacier.(2013).480p.BRRip.XviD.AC3-HDx.[TheRostrum.net].avi  [1.33 Gb]

Blood.Glacier.(2013).480p.BRRip.XviD.AC3-HDx.rar
Não tem Permissão para ver os ficheiros anexados nesta mensagem.

Avatar do Utilizador
Barefaced
Administrador
Administrador
Mensagens: 37130
Registado: 06 jul 2007, 17:43
Localização: @ Home
Contacto:

Re: Blutgletscher (2013) *480p BDRip* - HDx

Mensagem por Barefaced » 02 jun 2014, 17:29

...::: Adicionada legenda :brazil: :::...
Imagem
Imagem

darkness
Utilizador
Utilizador
Mensagens: 425
Registado: 16 jul 2013, 23:19

Re: Blutgletscher (2013) *480p BDRip* - HDx

Mensagem por darkness » 02 jun 2014, 18:04

:goodpost:

Avatar do Utilizador
coutinho
Utilizador
Utilizador
Mensagens: 1505
Registado: 26 out 2011, 11:06

Re: Blutgletscher (2013) *480p BDRip* - HDx

Mensagem por coutinho » 02 jun 2014, 20:00

Obrigado amigo

Responder

Voltar para “Filmes Recentes // Recent Movies (Com Legendas/With Subtitles)”