The Occupants (2014) *480p BDRip* - HDx

Filmes lançados em 2013 e anos seguintes. / Movies launched in 2013 and following years. (Retail DVD)

Moderador: Moderador

Responder
Avatar do Utilizador
pinote
eMuleCoop
eMuleCoop
Mensagens: 1142
Registado: 13 jun 2009, 05:16
Localização: Sempre perto de quem precisa de mim.
Contacto:

The Occupants (2014) *480p BDRip* - HDx

Mensagem por pinote » 24 mai 2014, 09:47

Imagem


Synopsis
A terapeuta Lucy vive com o namorado Wade e o seu filho recém-nascido Jack numa casa de montanha. Lucy e Wade começam a ter sonhos e a acordar com visões de um homem estranho na sua casa juntamente com duas meninas e uma mulher ensanguentada assassinada pelas suas mãos.

Therapist Lucy lives with her boyfriend Wade and their newborn son Jack in a mountainside home. Lucy and Wade begin having dreams and waking visions of a strange man in their house along with two girls and a bloodied woman murdered at his hands.


imdb.com
The Occupants (2014)

Capa
Sinopse:Lucy has a new husband, a new home and a new baby, but old ghosts won't let her be. She tries to help the tortured souls break free of their torment and move on, but soon finds these ghosts don't want her help.
Pontuação:3.8
Duração:79 minutos
Idioma:English
Realizador:Todd Alcott
Actores:Kristen Ariza, Ashanti Brown, Macey Cruthird, Marypat Farrell, Gail Golden
  
Fonte:http://www.imdb.com/title/tt1934195
Última Actualização:Segunda Março 12, 2018 07:45


Código: Selecionar todos

General
Complete name                            : E:\eMule\The.Occupants.(2014).480p.BDRip.AC3.XviD-HDx.[TheRostrum.net].avi
Format                                   : AVI
Format/Info                              : Audio Video Interleave
File size                                : 1.09 GiB
Duration                                 : 1h 18mn
Overall bit rate                         : 1 970 Kbps

Video
ID                                       : 0
Format                                   : MPEG-4 Visual
Format profile                           : Advanced Simple@L5
Format settings, BVOP                    : 2
Format settings, QPel                    : No
Format settings, GMC                     : No warppoints
Format settings, Matrix                  : Default (H.263)
Muxing mode                              : Packed bitstream
Codec ID                                 : XVID
Codec ID/Hint                            : XviD
Duration                                 : 1h 18mn
Bit rate                                 : 1 514 Kbps
Width                                    : 720 pixels
Height                                   : 400 pixels
Display aspect ratio                     : 16:9
Frame rate                               : 23.976 fps
Color space                              : YUV
Chroma subsampling                       : 4:2:0
Bit depth                                : 8 bits
Scan type                                : Progressive
Compression mode                         : Lossy
Bits/(Pixel*Frame)                       : 0.219
Stream size                              : 856 MiB (77%)
Writing library                          : XviD 64

Audio
ID                                       : 1
Format                                   : AC-3
Format/Info                              : Audio Coding 3
Mode extension                           : CM (complete main)
Format settings, Endianness              : Big
Codec ID                                 : 2000
Duration                                 : 1h 18mn
Bit rate mode                            : Constant
Bit rate                                 : 448 Kbps
Channel(s)                               : 6 channels
Channel positions                        : Front: L C R, Side: L R, LFE
Sampling rate                            : 48.0 KHz
Bit depth                                : 16 bits
Compression mode                         : Lossy
Stream size                              : 253 MiB (23%)
Alignment                                : Aligned on interleaves
Interleave, duration                     : 64 ms (1.53 video frames)
Interleave, preload duration             : 192 ms
Title                                    : HDx



Imagem Imagem
Imagem Imagem
Imagem Imagem
Imagem Imagem


ed2k: The.Occupants.(2014).480p.BDRip.AC3.XviD-HDx.avi  [1.09 Gb]

The.Occupants.(2014).480p.BDRip.AC3.XviD-HDx.rar
Não tem Permissão para ver os ficheiros anexados nesta mensagem.
Imagem
Imagem
UPLOADER

giraldino
Utilizador
Utilizador
Mensagens: 2883
Registado: 22 dez 2010, 22:24

Re: The Occupants (2014) *480p BDRip* - HDx

Mensagem por giraldino » 25 mai 2014, 14:57

:goodpost:

Avatar do Utilizador
tueunos
Utilizador
Utilizador
Mensagens: 7609
Registado: 17 mai 2008, 21:31
Localização: Algures Planeta Terra

Re: The Occupants (2014) *480p BDRip* - HDx

Mensagem por tueunos » 25 mai 2014, 20:34

Legenda Pt-Br anexada
Imagem

"A vida é uma pedra de amolar: desgasta-nos ou afia-nos, conforme o metal de que somos feitos."

"Eu sou responsável pelo que digo, não pelo que as pessoas entendem."

Responder

Voltar para “Filmes Recentes // Recent Movies (Com Legendas/With Subtitles)”