Arrêtez-moi (2013) *DVDRip* - UTT

Filmes lançados em 2013 e anos seguintes. / Movies launched in 2013 and following years. (Retail DVD)

Moderador: Moderador

Responder
Avatar do Utilizador
MuMuGoN
eMuleCoop
eMuleCoop
Mensagens: 582
Registado: 23 jul 2012, 02:08

Arrêtez-moi (2013) *DVDRip* - UTT

Mensagem por MuMuGoN » 22 mai 2014, 20:42

Imagem


Sinopse
Uma noite, uma mulher (Sophie Marceau) vai a uma esquadra para entregar-se por um assassinato do seu violento marido, cometido há 10 anos. À meia-noite o crime prescreve e ela precisa ser punida. No entanto, ao compreender as razões que a levaram a cometer tal delito, a detetive encarregada de a interrogar, Pontoise (Miou-Miou) recusa-se a prendê-la. A partir daí, um verdadeiro duelo tem início entre as duas mulheres. O filme é baseado no livro "Les lois de la gravité", de Jean Teulé.


imdb.com
Arrêtez-moi (2013)

Capa
Sinopse:Un soir, une femme se rend dans un commissariat pour confesser le meurtre de son mari violent, commis il y a plusieurs années. Seulement plus la policière de permanence interroge cette ...
Pontuação:5.5
Duração:99 minutos
Idioma:French
Realizador:Jean-Paul Lilienfeld
Actores:Sophie Marceau, Miou-Miou, Yann Ebonge, Marc Barbé, Valérie Bodson
  
Fonte:http://www.imdb.com/title/tt2290129
Última Actualização:Segunda Março 12, 2018 08:52


Código: Selecionar todos

General
Complete name                            : E:\eMule\Arretez.Moi.(2013).FRENCH.DVDRip.XviD-UTT.[TheRostrum.net].avi
Format                                   : AVI
Format/Info                              : Audio Video Interleave
File size                                : 704 MiB
Duration                                 : 1h 35mn
Overall bit rate                         : 1 031 Kbps
Writing application                      : VirtualDubMod 1.5.10.2 Fr | www.trad-fr.com ||  (build 2540/release)
Writing library                          : VirtualDubMod build 2540/release

Video
ID                                       : 0
Format                                   : MPEG-4 Visual
Format profile                           : Advanced Simple@L5
Format settings, BVOP                    : 2
Format settings, QPel                    : No
Format settings, GMC                     : No warppoints
Format settings, Matrix                  : Default (H.263)
Muxing mode                              : Packed bitstream
Codec ID                                 : XVID
Codec ID/Hint                            : XviD
Duration                                 : 1h 35mn
Bit rate                                 : 893 Kbps
Width                                    : 640 pixels
Height                                   : 272 pixels
Display aspect ratio                     : 2.35:1
Frame rate                               : 25.000 fps
Color space                              : YUV
Chroma subsampling                       : 4:2:0
Bit depth                                : 8 bits
Scan type                                : Progressive
Compression mode                         : Lossy
Bits/(Pixel*Frame)                       : 0.205
Stream size                              : 610 MiB (87%)
Writing library                          : XviD 1.2.1 (UTC 2008-12-04)

Audio
ID                                       : 1
Format                                   : MPEG Audio
Format version                           : Version 1
Format profile                           : Layer 3
Codec ID                                 : 55
Codec ID/Hint                            : MP3
Duration                                 : 1h 35mn
Bit rate mode                            : Constant
Bit rate                                 : 128 Kbps
Channel(s)                               : 2 channels
Sampling rate                            : 48.0 KHz
Compression mode                         : Lossy
Stream size                              : 87.4 MiB (12%)
Alignment                                : Aligned on interleaves
Interleave, duration                     : 40 ms (1.00 video frame)
Interleave, preload duration             : 504 ms
Writing library                          : LAME3.98r
Encoding settings                        : -m s -V 4 -q 2 -lowpass 17 -b 128



Imagem
Imagem
Imagem
Imagem
Imagem


ed2k: Arretez.Moi.(2013).FRENCH.DVDRip.XviD-UTT.[TheRostrum.net].avi  [703.86 Mb]
Não tem Permissão para ver os ficheiros anexados nesta mensagem.
Sim eu sou mal educado e não agradeço/comento qdo clico em algo.

Nimbus
Utilizador
Utilizador
Mensagens: 56
Registado: 10 jun 2010, 04:31

Re: Arrêtez-moi (2013) *DVDRip* - UTT

Mensagem por Nimbus » 24 mai 2014, 17:58

Obrigado :goodpost:
...a partilha é um dever cívico!....

Avatar do Utilizador
tainacan
Utilizador
Utilizador
Mensagens: 560
Registado: 05 mai 2011, 06:04

Re: Arrêtez-moi (2013) *DVDRip* - UTT

Mensagem por tainacan » 24 mai 2014, 19:42

Vou aguardar a legenda, mas ele já está na mulinha, obrigada.

:cavalinho: :brazil: :cavalinho:

Avatar do Utilizador
tainacan
Utilizador
Utilizador
Mensagens: 560
Registado: 05 mai 2011, 06:04

Re: Arrêtez-moi (2013) *DVDRip* - UTT

Mensagem por tainacan » 22 abr 2016, 15:31

Pessoal tinha me esquecido deste, mas gostaria da legenda por favor, obrigada.

Responder

Voltar para “Filmes Recentes // Recent Movies (Com Legendas/With Subtitles)”