Enough Said (2013) *BDRip* - playXD

Filmes lançados em 2013 e anos seguintes. / Movies launched in 2013 and following years. (Retail DVD)

Moderador: Moderador

Responder
Avatar do Utilizador
MoRsE
Moderador Global
Moderador Global
Mensagens: 1792
Registado: 29 jul 2009, 02:32
Localização: Azores

Enough Said (2013) *BDRip* - playXD

Mensagem por MoRsE » 09 jan 2014, 16:39




Synopsis
Albert (James Gandolfini) é um homem divorciado que reencontra a felicidade quando começa a namorar com Eva (Julia Louis-Dreyfus), uma massagista que ele conheceu numa festa. O problema é que Eva descobre que Albert é o ex-marido da sua nova melhor amiga, que nunca tem nada de bom para dizer sobre Albert.

A divorced and single parent, Eva (Julia Louis Dreyfus) spends her days enjoying work as a masseuse but dreading her daughter's impending departure for college. She meets Albert (James Gandolfini) - a sweet, funny and like-minded man also facing an empty nest. As their romance quickly blossoms, Eva befriends Marianne (Catherine Keener), her new massage client. Marianne is a beautiful poet who seems "almost perfect" except for one prominent quality: she rags on her ex-husband way too much. Suddenly, Eva finds herself doubting her own relationship with Albert as she learns the truth about Marianne's Ex. ENOUGH SAID is a sharp, insightful comedy that humorously explores the mess that often comes with getting involved again.


imdb.com
Enough Said (2013)

Capa
Sinopse:A divorced woman who decides to pursue the man she's interested in learns he's her new friend's ex-husband.
Pontuação:7.1
Duração:93 minutos
Idioma:English
Realizador:Nicole Holofcener
Actores:Julia Louis-Dreyfus, Lennie Loftin, Jessica St. Clair, Christopher Nicholas Smith, Tracey Fairaway
  
Fonte:http://www.imdb.com/title/tt2390361
Última Actualização:Segunda Março 12, 2018 11:29


Código: Selecionar todos

General
Complete name                            : C:\Users\Epuran Alexandrul\Downloads\Enough.Said.2013.BRRip.XviD-playXD\Enough.Said.2013.BRRip.XviD-playXD.avi
Format                                   : AVI
Format/Info                              : Audio Video Interleave
File size                                : 697 MiB
Duration                                 : 1h 32mn
Overall bit rate                         : 1 048 Kbps

Video
ID                                       : 0
Format                                   : MPEG-4 Visual
Format profile                           : Advanced Simple@L5
Format settings, BVOP                    : 2
Format settings, QPel                    : No
Format settings, GMC                     : No warppoints
Format settings, Matrix                  : Default (H.263)
Codec ID                                 : XVID
Codec ID/Hint                            : XviD
Duration                                 : 1h 32mn
Bit rate                                 : 914 Kbps
Width                                    : 640 pixels
Height                                   : 352 pixels
Display aspect ratio                     : 16:9
Frame rate                               : 23.976 fps
Color space                              : YUV
Chroma subsampling                       : 4:2:0
Bit depth                                : 8 bits
Scan type                                : Progressive
Compression mode                         : Lossy
Bits/(Pixel*Frame)                       : 0.169
Stream size                              : 608 MiB (87%)
Writing library                          : XviD 1.2.1 (UTC 2008-12-04)

Audio
ID                                       : 1
Format                                   : MPEG Audio
Format version                           : Version 1
Format profile                           : Layer 3
Mode                                     : Joint stereo
Mode extension                           : MS Stereo
Codec ID                                 : 55
Codec ID/Hint                            : MP3
Duration                                 : 1h 32mn
Bit rate mode                            : Constant
Bit rate                                 : 128 Kbps
Channel count                            : 2 channels
Sampling rate                            : 48.0 KHz
Compression mode                         : Lossy
Stream size                              : 85.1 MiB (12%)
Alignment                                : Aligned on interleaves
Interleave, duration                     : 167 ms (4.00 video frames)
Interleave, preload duration             : 216 ms
Title                                    : enough.said.2013.720p.bluray.x264-sparks - [1] English_audio
Writing library                          : LAME3.99r
Encoding settings                        : -m j -V 4 -q 2 -lowpass 17 -b 128



Imagem Imagem
Imagem Imagem
Imagem Imagem


ed2k: Enough.Said.(2013).BRRip.XviD-playXD.[TheRostrum.net].avi  [696.82 Mb]

Enough.Said.(2013).BRRip.XviD-playXD.rar
Não tem Permissão para ver os ficheiros anexados nesta mensagem.
Imagem

Avatar do Utilizador
coutinho
Utilizador
Utilizador
Mensagens: 1489
Registado: 26 out 2011, 11:06

Re: Enough Said (2013) *BDRip* - playXD

Mensagem por coutinho » 09 jan 2014, 17:15

Vai sair. Obrigado

Responder

Voltar para “Filmes Recentes // Recent Movies (Com Legendas/With Subtitles)”