Jobs (2013) *BDRip* - playXD

Filmes lançados em 2013 e anos seguintes. / Movies launched in 2013 and following years. (Retail DVD)

Moderador: Moderador

Responder
Avatar do Utilizador
MoRsE
Moderador Global
Moderador Global
Mensagens: 1792
Registado: 29 jul 2009, 02:32
Localização: Azores

Jobs (2013) *BDRip* - playXD

Mensagem por MoRsE » 01 nov 2013, 17:07




Synopsis
Filme sobre a extraordinária história de Steve Jobs, Ashton Kutcher encarna este inovador e revolucionário empreendedor, que tinha como regra não deixar que nada se intrometesse no caminho da grandeza. O filme conta a épica e turbulenta história de Jobs desde que iniciou o percurso que mudou a tecnologia – e o mundo – para sempre.

Ashton Kutcher is Steve Jobs, the iconic Apple innovator and groundbreaking entrepreneur. This inspiring and entertaining film chronicles Jobs' early days as a college dropout to his rise as the co-founder of Apple Computer Inc. and forced departure from the company. More than a decade later, Jobs returns and single-handedly sets a course that will turn the once-tiny startup into one of the world's most valuable companies. His epic journey blazes a trail that changes technology - and the world - forever. Jobs is a riveting story of a true American visionary, a man who let nothing stand in the way of greatness. Co-starring Dermot Mulroney, Josh Gad, J. K. Simmons and Matthew Modine.


imdb.com
Jobs (2013)

Capa
Sinopse:The story of Steve Jobs' ascension from college dropout into one of the most revered creative entrepreneurs of the 20th century.
Pontuação:5.9
Duração:128 minutos
Idioma:English
Realizador:Joshua Michael Stern
Actores:Ashton Kutcher, Dermot Mulroney, Josh Gad, Lukas Haas, Matthew Modine
  
Fonte:http://www.imdb.com/title/tt2357129
Última Actualização:Segunda Março 12, 2018 10:30


Código: Selecionar todos

General
Complete name                            : D:\utorrent\Jobs.2013.BRRip.XviD.AC3-playXD.avi
Format                                   : AVI
Format/Info                              : Audio Video Interleave
File size                                : 1.36 GiB
Duration                                 : 2h 2mn
Overall bit rate                         : 1 590 Kbps


Video
ID                                       : 0
Format                                   : MPEG-4 Visual
Format profile                           : Advanced Simple@L5
Format settings, BVOP                    : 2
Format settings, QPel                    : No
Format settings, GMC                     : No warppoints
Format settings, Matrix                  : Default (H.263)
Codec ID                                 : XVID
Codec ID/Hint                            : XviD
Duration                                 : 2h 2mn
Bit rate                                 : 1 199 Kbps
Width                                    : 720 pixels
Height                                   : 304 pixels
Display aspect ratio                     : 2.35:1
Frame rate                               : 25.000 fps
Color space                              : YUV
Chroma subsampling                       : 4:2:0
Bit depth                                : 8 bits
Scan type                                : Progressive
Compression mode                         : Lossy
Bits/(Pixel*Frame)                       : 0.219
Stream size                              : 1.02 GiB (75%)
Writing library                          : XviD 1.2.1 (UTC 2008-12-04)


Audio
ID                                       : 1
Format                                   : AC-3
Format/Info                              : Audio Coding 3
Mode extension                           : CM (complete main)
Format settings, Endianness              : Big
Codec ID                                 : 2000
Duration                                 : 2h 2mn
Bit rate mode                            : Constant
Bit rate                                 : 384 Kbps
Channel(s)                               : 6 channels
Channel positions                        : Front: L C R, Side: L R, LFE
Sampling rate                            : 48.0 KHz
Bit depth                                : 16 bits
Compression mode                         : Lossy
Stream size                              : 335 MiB (24%)
Alignment                                : Aligned on interleaves
Interleave, duration                     : 64 ms (1.60 video frames)
Interleave, preload duration             : 192 ms
Title                                    : Jobs.2013.720p.BluRay.DD5.1.x264-xiaofriend - [0] English 1720ms_audio



Imagem
Imagem
Imagem
Imagem
Imagem


ed2k: Jobs.(2013).BDRip.AC3.XviD-playXD.avi  [1.36 Gb]

Jobs.(2013).BDRip.AC3.XviD-playXD.rar
Não tem Permissão para ver os ficheiros anexados nesta mensagem.
Imagem

darkness
Utilizador
Utilizador
Mensagens: 425
Registado: 16 jul 2013, 23:19

Re: Jobs (2013) *BDRip* - playXD

Mensagem por darkness » 01 nov 2013, 17:31

:goodpost:

Avatar do Utilizador
arf100c
eMuleCoop
eMuleCoop
Mensagens: 7341
Registado: 08 jun 2009, 15:48

Re: Jobs (2013) *BDRip* - playXD

Mensagem por arf100c » 06 jan 2014, 20:28

...::: Adicionada legenda :portugal: :::...

Responder

Voltar para “Filmes Recentes // Recent Movies (Com Legendas/With Subtitles)”