The Lone Ranger (2013) *BDRip* - UNiQUE

Filmes lançados em 2013 e anos seguintes. / Movies launched in 2013 and following years. (Retail DVD)

Moderador: Moderador

Responder
Avatar do Utilizador
MoRsE
Moderador Global
Moderador Global
Mensagens: 1792
Registado: 29 jul 2009, 02:32
Localização: Azores

The Lone Ranger (2013) *BDRip* - UNiQUE

Mensagem por MoRsE » 05 out 2013, 03:44




Synopsis
Tonto, um nativo Americano de espírito guerreiro, relata as histórias inéditas que transformaram John Reid, um homem da lei, num lendário justiceiro - levando o público numa corrida desenfreada por entre surpresas épicas e momentos de tensão humorística, enquanto estes dois heróis improváveis, aprendem a trabalhar juntos no combate à ganância e corrupção. Tonto, nativo Americano de espírito guerreiro e John Reid, um homem da lei, são opostos que se atraem, unidos pelo destino e juntos no combate à ganância e corrupção.

From producer Jerry Bruckheimer and director Gore Verbinski, the filmmaking team behind the blockbuster “Pirates of the Caribbean” franchise, comes Disney/Jerry Bruckheimer Films’ “The Lone Ranger,” a thrilling adventure infused with action and humor, in which the famed masked hero is brought to life through new eyes. Native American spirit warrior Tonto (Johnny Depp) recounts the untold tales that transformed John Reid (Armie Hammer), a man of the law, into a legend of justice—taking the audience on a runaway train of epic surprises and humorous friction as the two unlikely heroes must learn to work together and fight against greed and corruption.


imdb.com
The Lone Ranger (2013)

Capa
Sinopse:Native American warrior Tonto recounts the untold tales that transformed John Reid, a man of the law, into a legend of justice.
Pontuação:6.5
Duração:150 minutos
Idioma:English, North American Indian
Realizador:Gore Verbinski
Actores:Johnny Depp, Armie Hammer, William Fichtner, Tom Wilkinson, Ruth Wilson
  
Fonte:http://www.imdb.com/title/tt1210819
Última Actualização:Segunda Março 12, 2018 07:26


NFO:



http://www.imdb.com/title/tt1210819/


Source PHD


General

Format version : Version 2
File size : 2.21 GiB
Duration : 2h 29mn
Overall bit rate mode : Variable
Overall bit rate : 2 113 Kbps
Encoded date : UTC 2013-10-03 14:39:18
Writing application : mkvmerge v6.4.1 ('Omega Point') built on Sep 16 2013 22:05:10
Writing library : libebml v1.3.0 + libmatroska v1.4.1


Video

ID : 1
Format : AVC
Format/Info : Advanced Video Codec
Format profile : High@L4.1
Format settings, CABAC : Yes
Format settings, ReFrames : 3 frames
Codec ID : V_MPEG4/ISO/AVC
Duration : 2h 29mn
Bit rate mode : Variable
Bit rate : 1 718 Kbps
Maximum bit rate : 40.0 Mbps
Width : 720 pixels
Height : 304 pixels
Display aspect ratio : 2.35:1
Frame rate : 23.976 fps
Color space : YUV
Chroma subsampling : 4:2:0
Bit depth : 8 bits
Scan type : Progressive
Bits/(Pixel*Frame) : 0.327
Stream size : 1.76 GiB (80%)
Writing library : x264 core 138 r2358 9e941d1
Default : Yes
Forced : No


Audio

ID : 2
Format : AC-3
Format/Info : Audio Coding 3
Mode extension : CM (complete main)
Format settings, Endianness : Big
Codec ID : A_AC3
Duration : 2h 29mn
Bit rate mode : Constant
Bit rate : 384 Kbps
Channel(s) : 6 channels
Channel positions : Front: L C R, Side: L R, LFE
Sampling rate : 48.0 KHz
Bit depth : 16 bits
Compression mode : Lossy
Stream size : 411 MiB (18%)
Language : English
Default : Yes
Forced : No


Text

ID : 3
Format : PGS
Muxing mode : zlib
Codec ID : S_HDMV/PGS
Codec ID/Info : The same subtitle format used on BDs/HD-DVDs
Language : English
Default : Yes
Forced : No


Screens

Imagem
Imagem
Imagem



Imagem

Imagem

Imagem

Imagem

Imagem

Imagem

Imagem


ed2k: The.Lone.Ranger.(2013).BRRip.x264.AC3-UNiQUE.[TheRostrum.net].mkv  [2.21 Gb]

The.Lone.Ranger.(2013).BRRip.x264.AC3-UNiQUE.rar
Não tem Permissão para ver os ficheiros anexados nesta mensagem.
Imagem

Avatar do Utilizador
Barefaced
Administrador
Administrador
Mensagens: 35931
Registado: 06 jul 2007, 17:43
Localização: @ Home
Contacto:

Re: The Lone Ranger (2013) *BDRip* - UNiQUE

Mensagem por Barefaced » 21 out 2013, 11:54

...::: Adicionada legenda :portugal: :::...
Imagem

Responder

Voltar para “Filmes Recentes // Recent Movies (Com Legendas/With Subtitles)”