Intersections (2013) *DVDRip* - juggs

Filmes lançados em 2013 e anos seguintes. / Movies launched in 2013 and following years. (Retail DVD)

Moderador: Moderador

Responder
Avatar do Utilizador
wh0p5y
eMuleCoop
eMuleCoop
Mensagens: 5177
Registado: 14 fev 2010, 10:21
Localização: Right Here

Intersections (2013) *DVDRip* - juggs

Mensagem por wh0p5y » 23 jun 2013, 00:41




Sinopse
Um casal de nova-iorquinos ricos passa a lua-de-mel em Marrocos… O amante da noiva vagueia com os seus próprios planos… Um perigoso contrabandista de diamantes é transferido para uma prisão… Uma mulher enigmática viaja com um bebé. As suas histórias vão colidir num brutal acidente de viação, em pleno deserto do Saara. Os sobreviventes não terão outra escolha senão unirem forças para saírem ilesos. Mas em quem confiar? Emerge então das dunas um misterioso estranho. Os seus destinos estarão agora ligados por uma viagem cheia de voltas e reviravoltas, mentiras e traições... Mas e se nada tivesse acontecido por acaso?

Set around a wife and husband on vacation in Morocco with the wife plotting to murder her husband with help from her lover. The plan goes terribly wrong when her lover and husband get into a terrible car accident on a remote desert road. They escape the multi-car pileup at a desert intersection and encounter the group of survivors, including a wanted smuggler, an undercover cop, a kidnapper, a baby and an unconscious Australian. They embark on a journey of deceit and revelation that culminates in a Tangiers souk.


imdb.com
Collision (2013)

Capa
Sinopse:A couple on their honeymoon in Morocco survive a deadly car accident in the middle of the desert.
Pontuação:5.9
Duração:101 minutos
Idioma:English, French, Arabic
Realizador:David Marconi
Actores:Frank Grillo, Jaimie Alexander, Roschdy Zem, Marie-Josée Croze, Moussa Maaskri
  
Fonte:http://www.imdb.com/title/tt1680123
Última Actualização:Segunda Março 12, 2018 10:47


Código: Selecionar todos

Source : DVDR-VIAZAC (Thanks)

http://www.imdb.com/title/tt1680123/

Format                                   : AVI
Format/Info                              : Audio Video Interleave
File size                                : 697 MiB
Duration                                 : 1h 37mn
Overall bit rate                         : 1 001 Kbps
Writing library                          : VirtualDub build 32842/release

Video
ID                                       : 0
Format                                   : MPEG-4 Visual
Format profile                           : Advanced Simple@L5
Format settings, BVOP                    : 2
Format settings, QPel                    : No
Format settings, GMC                     : No warppoints
Format settings, Matrix                  : Default (H.263)
Muxing mode                              : Packed bitstream
Codec ID                                 : XVID
Codec ID/Hint                            : XviD
Duration                                 : 1h 37mn
Bit rate                                 : 864 Kbps
Width                                    : 640 pixels
Height                                   : 272 pixels
Display aspect ratio                     : 2.35:1
Frame rate                               : 25.000 fps
Color space                              : YUV
Chroma subsampling                       : 4:2:0
Bit depth                                : 8 bits
Scan type                                : Progressive
Compression mode                         : Lossy
Bits/(Pixel*Frame)                       : 0.198
Stream size                              : 602 MiB (86%)
Writing library                          : XviD 1.2.1 (UTC 2008-12-04)

Audio
ID                                       : 1
Format                                   : MPEG Audio
Format version                           : Version 1
Format profile                           : Layer 3
Codec ID                                 : 55
Codec ID/Hint                            : MP3
Duration                                 : 1h 37mn
Bit rate mode                            : Constant
Bit rate                                 : 128 Kbps
Channel(s)                               : 2 channels
Sampling rate                            : 44.1 KHz
Compression mode                         : Lossy
Stream size                              : 89.1 MiB (13%)
Alignment                                : Split accross interleaves
Interleave, duration                     : 40 ms (1.00 video frame)
Interleave, preload duration             : 500 ms
Writing library                          : LAME3.99r


Plot
A couple on their honeymoon in Morocco survive a deadly car accident in the middle of the desert.



Imagem

Imagem

Imagem

Imagem

Imagem

Imagem

Imagem


ed2k: Intersections.(2013).DVDRip.XviD-juggs.avi  [697.42 Mb]

Intersections.(2013).DVDRip.XviD-juggs.rar
Não tem Permissão para ver os ficheiros anexados nesta mensagem.
Imagem
Imagem
UPLOADER

Avatar do Utilizador
arf100c
eMuleCoop
eMuleCoop
Mensagens: 7321
Registado: 08 jun 2009, 15:48

Re: Intersections (2013) *DVDRip* - juggs

Mensagem por arf100c » 20 jan 2014, 19:15

Legenda Pt anexada.

Avatar do Utilizador
tueunos
Utilizador
Utilizador
Mensagens: 7618
Registado: 17 mai 2008, 21:31
Localização: Algures Planeta Terra

Re: Intersections (2013) *DVDRip* - juggs

Mensagem por tueunos » 29 jan 2014, 00:52

Topico editado.
Imagem

"A vida é uma pedra de amolar: desgasta-nos ou afia-nos, conforme o metal de que somos feitos."

"Eu sou responsável pelo que digo, não pelo que as pessoas entendem."

Responder

Voltar para “Filmes Recentes // Recent Movies (Com Legendas/With Subtitles)”