Nailbiter (2013) *DVDRip* - MiLLENiUM

Filmes lançados em 2013 e anos seguintes. / Movies launched in 2013 and following years. (Retail DVD)

Moderador: Moderador

Responder
Avatar do Utilizador
wh0p5y
eMuleCoop
eMuleCoop
Mensagens: 5172
Registado: 14 fev 2010, 10:21
Localização: Right Here

Nailbiter (2013) *DVDRip* - MiLLENiUM

Mensagem por wh0p5y » 05 jun 2013, 00:39




Synopsis
This movie is about a mother (Alice Maguire) and her three daughters who are trying to get to the airport to pick up Mr Maguire, the daughter’s father. But on the way there is a tornado warning and the trip starts to get too dangerous so they stop on the highway and run to a house to take shelter. Nobody answers the door so they all get in to the cellar to wait out the storm. But then they discover that there is somebody in the house above them, and then they become trapped in the cellar. But there’s more to worry about than the impending storm, and their lives become endangered, by something that’s not normal.


imdb.com
AE: Apocalypse Earth (2013)

Capa
Sinopse:A group of refugees from Earth work to survive on a hostile alien planet.
Pontuação:3.2
Duração:87 minutos
Idioma:English
Realizador:Thunder Levin
Actores:Adrian Paul, Richard Grieco, Bali Rodriguez, Gray Hawks, Jay Cardell
  
Fonte:http://www.imdb.com/title/tt2756412
Última Actualização:Segunda Março 12, 2018 11:22


NFO:
Imagem


http://www.imdb.com/title/tt2756412/

General

Unique ID : 243479920790712521019748767298934025456 (0xB72C86EB7D583DD4A4E2658360702CF0)
Complete name : \Nailbiter 2013 DVDrip x264 Ace-MiLLENiUM.mkv
Source : DVDR[Thanks]
Format : Matroska
Format version : Version 4 / Version 2
File size : 1.12 GiB
Duration : 1h 21mn
Overall bit rate mode : Variable
Overall bit rate : 1 960 Kbps
Encoded date : UTC 2013-06-03 18:57:45
Writing application : mkvmerge v6.2.0 ('Promised Land') built on Apr 28 2013 12:22:01
Writing library : libebml v1.3.0 + libmatroska v1.4.0


Video

ID : 2
Format : AVC
Format/Info : Advanced Video Codec
Format profile : High@L4.1
Format settings, CABAC : Yes
Format settings, ReFrames : 3 frames
Codec ID : V_MPEG4/ISO/AVC
Duration : 1h 21mn
Bit rate mode : Variable
Bit rate : 1 510 Kbps
Maximum bit rate : 40.0 Mbps
Width : 720 pixels
Height : 304 pixels
Display aspect ratio : 2.35:1
Frame rate : 23.976 fps
Color space : YUV
Chroma subsampling : 4:2:0
Bit depth : 8 bits
Scan type : Progressive
Bits/(Pixel*Frame) : 0.288
Stream size : 860 MiB (75%)
Writing library : x264 core 133 r2334 a3ac64b
Language : English
Default : Yes
Forced : No
Color primaries : BT.709-5, BT.1361, IEC 61966-2-4, SMPTE RP177
Transfer characteristics : BT.709-5, BT.1361
Matrix coefficients : BT.709-5, BT.1361, IEC 61966-2-4 709, SMPTE RP177


Audio

ID : 1
Format : AC-3
Format/Info : Audio Coding 3
Mode extension : CM (complete main)
Codec ID : A_AC3
Duration : 1h 21mn
Bit rate mode : Constant
Bit rate : 448 Kbps
Channel(s) : 6 channels
Channel positions : Front: L C R, Side: L R, LFE
Sampling rate : 48.0 KHz
Bit depth : 16 bits
Compression mode : Lossy
Stream size : 261 MiB (23%)
Default : Yes
Forced : no


Screens :

Imagem

Imagem

Imagem

Imagem


Imagem


GREETZ TO ALL :) :)



Imagem
Imagem
Imagem
Imagem
Imagem


ed2k: Nailbiter.(2013).DVDRip.x264.AC3-MiLLENiUM.[TheRostrum.net].mkv  [1.12 Gb]

Nailbiter.(2013).DVDRip.x264.AC3-MiLLENiUM.rar
Não tem Permissão para ver os ficheiros anexados nesta mensagem.
Imagem
Imagem
UPLOADER

Avatar do Utilizador
Barefaced
Administrador
Administrador
Mensagens: 36666
Registado: 06 jul 2007, 17:43
Localização: @ Home
Contacto:

Re: Nailbiter (2013) *DVDRip* - MiLLENiUM

Mensagem por Barefaced » 05 dez 2013, 19:32

...::: Adicionadas legendas em :portugal: :::...
Imagem
Imagem

Responder

Voltar para “Filmes Recentes // Recent Movies (Com Legendas/With Subtitles)”