Parker (2013) *BDRip* - MiLLENiUM

Filmes lançados em 2013 e anos seguintes. / Movies launched in 2013 and following years. (Retail DVD)

Moderador: Moderador

Responder
Avatar do Utilizador
wh0p5y
eMuleCoop
eMuleCoop
Mensagens: 5170
Registado: 14 fev 2010, 10:21
Localização: Right Here

Parker (2013) *BDRip* - MiLLENiUM

Mensagem por wh0p5y » 30 mai 2013, 04:55




Synopsis
Parker é um assaltante ousado, meticuloso e implacável , um especialista em planear e executar assaltos aparentemente impossíveis. Tudo o que exige à sua equipa é lealdade absoluta e estrita adesão ao plano. Quando durante um assalto, um descuido de um membro do seu grupo coloca toda a equipa numa situação de perigo, Parker recusa entrar num novo golpe, apesar de este ser pedido pelo chefe do crime Melander. Não estando disposto a aceitar um não como resposta, Melander ataca Parker, deixando-o como morto numa estrada deserta. Sobrevivendo ao ataque e decidido a vingar-se, Parker segue os seus atacantes até Palm Beach, onde assume a identidade de um texano rico à procura de comprar uma casa. Lá conhece Leslie, uma vendedora de imóveis com problemas financeiros e um enorme conhecimento da região. Ao descobrir que o grupo de Melander pretende roubar mais de 50 milhões de dólares em joias, Parker elabora um plano para sequestrar o prémio e assim executar a sua vingança.

Parker is a thief who has an unusual code. He doesn't steal from the poor and hurt innocent people. He is asked to join 4 other guys one of whom is related to a known mobster. They pull off the job flawlessly and Parker wants to part ways with them. But because he refused to join them for another job they try to kill him. They dispose of his body but someone finds him and he is still alive and takes him to the hospital. After recovering he sets out to get back at the ones who tried to kill him, another one of his codes. He learns where they are and poses as a wealthy Texan looking to buy a house. So he hires a Realtor, Leslie Rogers to show him around. He is actually trying to find out where they're holed up. And when he finds it, he sets out on his plan to get them. But when they learn he is alive, they contact the mobster to take care of him. So he sends a killer to take care of him.


imdb.com
Parker (2013)

Capa
Sinopse:A thief with a unique code of professional ethics is double-crossed by his crew and left for dead. Assuming a new disguise and forming an unlikely alliance with a woman on the inside, he looks to hijack the score of the crew's latest heist.
Pontuação:6.2
Duração:118 minutos
Idioma:English
Realizador:Taylor Hackford
Actores:Jason Statham, Jennifer Lopez, Michael Chiklis, Wendell Pierce, Clifton Collins Jr.
  
Fonte:http://www.imdb.com/title/tt1904996
Última Actualização:Segunda Março 12, 2018 08:37


NFO:
General

Unique ID : 222366350094993861372034756316532058468 (0xA74A3383A04606A491EBC4C6BB082964)
Complete name : Parker.2013.BRRIP. x264 Ac3-MiLLENiUM.mkv
Source : Bluray [Thanks]
Format : Matroska
Format version : Version 2
File size : 1.62 GiB
Duration : 1h 58mn
Overall bit rate mode : Variable
Overall bit rate : 1 960 Kbps
Encoded date : UTC 2013-06-06 14:20:21
Writing application : mkvmerge v6.2.0 ('Promised Land') built on Apr 28 2013 12:22:01
Writing library : libebml v1.3.0 + libmatroska v1.4.0

Video
ID : 1
Format : AVC
Format/Info : Advanced Video Codec
Format profile : High@L4.1
Format settings, CABAC : Yes
Format settings, ReFrames : 3 frames
Codec ID : V_MPEG4/ISO/AVC
Duration : 1h 58mn
Bit rate mode : Variable
Bit rate : 1 510 Kbps
Maximum bit rate : 40.0 Mbps
Width : 720 pixels
Height : 304 pixels
Display aspect ratio : 2.35:1
Frame rate : 23.976 fps
Color space : YUV
Chroma subsampling : 4:2:0
Bit depth : 8 bits
Scan type : Progressive
Bits/(Pixel*Frame) : 0.288
Stream size : 1.22 GiB (75%)
Writing library : x264 core 133 r2334 a3ac64b
Language : English
Default : Yes
Forced : No
Color primaries : BT.709-5, BT.1361, IEC 61966-2-4, SMPTE RP177
Transfer characteristics : BT.709-5, BT.1361
Matrix coefficients : BT.709-5, BT.1361, IEC 61966-2-4 709, SMPTE RP177

Audio
ID : 2
Format : AC-3
Format/Info : Audio Coding 3
Mode extension : CM (complete main)
Codec ID : A_AC3
Duration : 1h 58mn
Bit rate mode : Constant
Bit rate : 448 Kbps
Channel(s) : 6 channels
Channel positions : Front: L C R, Side: L R, LFE
Sampling rate : 48.0 KHz
Bit depth : 16 bits
Compression mode : Lossy
Stream size : 380 MiB (23%)
Language : English
Default : Yes
Forced : No



Screens :

Imagem

Imagem

Imagem

Imagem

Imagem



Imagem


GREETZ TO ALL :) :)



Imagem

Imagem

Imagem

Imagem

Imagem


ed2k: Parker.(2013).BRRip.XviD.AC3-MiLLENiUM.[TheRostrum.net].avi  [1.73 Gb]

Parker.(2013).BRRip.XviD.AC3-MiLLENiUM.rar

Parker.(2013).BRRip.XviD.AC3-MiLLENiUM.rar
Não tem Permissão para ver os ficheiros anexados nesta mensagem.
Imagem
Imagem
UPLOADER

Avatar do Utilizador
arf100c
eMuleCoop
eMuleCoop
Mensagens: 7311
Registado: 08 jun 2009, 15:48

Re: Parker (2013) *BDRip* - MiLLENiUM

Mensagem por arf100c » 14 ago 2013, 16:10

...::: Adiconadas legendas :brazil: e :portugal: :::...

Responder

Voltar para “Filmes Recentes // Recent Movies (Com Legendas/With Subtitles)”