La migliore offerta (2013) *BDRip* - MiLLENiUM

Filmes lançados em 2013 e anos seguintes. / Movies launched in 2013 and following years. (Retail DVD)

Moderador: Moderador

Responder
Avatar do Utilizador
wh0p5y
eMuleCoop
eMuleCoop
Mensagens: 5172
Registado: 14 fev 2010, 10:21
Localização: Right Here

La migliore offerta (2013) *BDRip* - MiLLENiUM

Mensagem por wh0p5y » 30 mai 2013, 04:23




Synopsis
Virgili Oldman é um famosíssimo leiloeiro e grande colecionador de arte, misantropo, misógino e riquíssimo, obcecado com mulheres que não consegue se consegue aproximar de ninguém que só pode possuir em retratos. Assistido pelo velho amigo Billy, conseguiu formar uma enorme coleção de retratos femininos que guarda num quarto secreto. Nunca teve uma mulher ao seu lado e toda a sua paixão está direcionada à arte, até receber o telefonema de Claire, jovem e esquiva herdeira de um interessante património familiar...

The film tells an unusual love story set in Vienna, in the world of auctions, among luxury hotels and fine restaurants. The story revolves around a loveless elderly man who intersects with an astute young man and a mysterious woman in a Central European setting.


imdb.com
The Best Offer (2013)

Capa
Sinopse:A lonely art expert working for a mysterious and reclusive heiress finds not only her art worth examining.
Pontuação:7.8
Duração:131 minutos
Idioma:English
Realizador:Giuseppe Tornatore
Actores:Geoffrey Rush, Jim Sturgess, Sylvia Hoeks, Donald Sutherland, Philip Jackson
  
Fonte:http://www.imdb.com/title/tt1924396
Última Actualização:Segunda Março 12, 2018 08:49


NFO:
General
Unique ID : 172246925206462587830784675858720794819 (0x81958D157041442CBCFE9157EBF8A8C3)
Complete name : The.Best.Offer.2013.BRrip x264 Ac3-MiLLENiUM
Source : NYDIC [thanks]
Format : Matroska
Format version : Version 4 / Version 2
File size : 1.73 GiB
Duration : 2h 10mn
Overall bit rate mode : Variable
Overall bit rate : 1 896 Kbps
Encoded date : UTC 2013-05-17 05:31:34
Writing application : mkvmerge v6.2.0 ('Promised Land') built on Apr 28 2013 12:22:01
Writing library : libebml v1.3.0 + libmatroska v1.4.0

Video
ID : 2
Format : AVC
Format/Info : Advanced Video Codec
Format profile : High@L4.1
Format settings, CABAC : Yes
Format settings, ReFrames : 3 frames
Codec ID : V_MPEG4/ISO/AVC
Duration : 2h 10mn
Bit rate mode : Variable
Bit rate : 1 510 Kbps
Maximum bit rate : 40.0 Mbps
Width : 720 pixels
Height : 304 pixels
Display aspect ratio : 2.35:1
Frame rate mode : Constant
Frame rate : 24.000 fps
Color space : YUV
Chroma subsampling : 4:2:0
Bit depth : 8 bits
Scan type : Progressive
Bits/(Pixel*Frame) : 0.287
Stream size : 1.35 GiB (78%)
Writing library : x264 core 132 r2310 76a5c3a
Language : English
Default : Yes
Forced : No
Color primaries : BT.709
Transfer characteristics : BT.709
Matrix coefficients : BT.709

Audio
ID : 1
Format : AC-3
Format/Info : Audio Coding 3
Mode extension : CM (complete main)
Format settings, Endianness : Big
Codec ID : A_AC3
Duration : 2h 10mn
Bit rate mode : Constant
Bit rate : 384 Kbps
Channel(s) : 6 channels
Channel positions : Front: L C R, Side: L R, LFE
Sampling rate : 48.0 KHz
Bit depth : 16 bits
Compression mode : Lossy
Stream size : 360 MiB (20%)
Default : Yes
Forced : No


Screens :

Imagem

Imagem

Imagem

Imagem

Imagem

Imagem

Imagem

Imagem


GREETZ TO ALL THAT MAKE THE EFFORT !!

RESPECT TO INFERNO,DEVILDEEDS,OFFLINE,26K AND ALL THE FRIENDS THAT HELP THE CAUSE



Imagem

Imagem

Imagem

Imagem

Imagem

Imagem

Imagem

Imagem


ed2k: The.Best.Offer.(2013).BRRip.x264.AC3-MiLLENiUM.[TheRostrum.net].mkv  [1.73 Gb]

The.Best.Offer.(2013).BRRip.x264.AC3-MiLLENiUM.rar
Não tem Permissão para ver os ficheiros anexados nesta mensagem.
Imagem
Imagem
UPLOADER

giraldino
Utilizador
Utilizador
Mensagens: 2883
Registado: 22 dez 2010, 22:24

Re: La migliore offerta (2013) *BDRip* - MiLLENiUM

Mensagem por giraldino » 30 mai 2013, 14:49

Obrigado.

Avatar do Utilizador
Barefaced
Administrador
Administrador
Mensagens: 36666
Registado: 06 jul 2007, 17:43
Localização: @ Home
Contacto:

Re: La migliore offerta (2013) *BDRip* - MiLLENiUM

Mensagem por Barefaced » 23 set 2013, 12:37

...::: Adicionada legenda :portugal: :::...
Imagem
Imagem

Responder

Voltar para “Filmes Recentes // Recent Movies (Com Legendas/With Subtitles)”