Gangster Squad (2013) *BDRip* - OFFLiNE

Filmes lançados em 2013 e anos seguintes. / Movies launched in 2013 and following years. (Retail DVD)

Moderador: Moderador

Responder
Avatar do Utilizador
quiZZical
eMulePoster
eMulePoster
Mensagens: 4860
Registado: 28 jul 2011, 19:30

Gangster Squad (2013) *BDRip* - OFFLiNE

Mensagem por quiZZical » 05 abr 2013, 19:19




Synopsis
Los Angeles, 1949. Cruel, nascido em Brooklyn e rei de um gang, Mickey Cohen comanda a vida na cidade, colhendo os ganhos ilícitos de drogas, de armas, da prostituição e - se tiver oportunidade - de todas as apostas colocadas a oeste de Chicago. Mickey faz tudo isso com a protecção não só dos seus guarda-costas, como também da polícia e dos políticos que estão sob o seu controlo. É o suficiente para intimidar até o polícia mais corajoso, excepto talvez para a pequena e secreta equipa da LAPD liderada pelo Sargento John O'Mara e Jerry Wooters, que se juntam para derrubar o mundo de Cohen. Sob a direcção de Ruben Fleischer, "The Gangster Squad" mostra-nos uma série de acções que envolvem os esforços da Polícia para recuperarem a sua cidade do chefe da Máfia mais perigoso de todos os tempos. O filme conta ainda com a participação de Nick Nolte como chefe da Polícia "Whiskey Bill" Parker; e Emma Stone como Grace Faraday, a namorada de Mickey e alvo da atenção de Wooters.

Los Angeles, 1949. Ruthless, Brooklyn-born mob king Mickey Cohen (Sean Penn) runs the show in this town, reaping the ill-gotten gains from the drugs, the guns, the prostitutes and—if he has his way—every wire bet placed west of Chicago. And he does it all with the protection of not only his own paid goons, but also the police and the politicians he has under his thumb. It’s enough to intimidate even the bravest, street-hardened cop…except, perhaps, for the small, secret crew of LAPD outsiders led by Sgt. John O’Mara (Josh Brolin) and Sgt. Jerry Wooters (Ryan Gosling), who come together to try to tear Cohen’s world apart.


imdb.com
Gangster Squad (2013)

Capa
Sinopse:It's 1949 Los Angeles, the city is run by gangsters and a malicious mobster, Mickey Cohen. Determined to end the corruption, John O'Mara assembles a team of cops, ready to take down the ruthless leader and restore peace to the city.
Pontuação:6.7
Duração:113 minutos
Idioma:English
Realizador:Ruben Fleischer
Actores:Sean Penn, Holt McCallany, Wade Williams, James Landry Hébert, Ambyr Childers
  
Fonte:http://www.imdb.com/title/tt1321870
Última Actualização:Segunda Março 12, 2018 08:47


NFO:
.i:                 
.iii:. :;::::::::::r ri:::::::::i: .i:r. i::i :i::: :::i .i.:.:::.:.:i .7:
.a@B@@@@@B@Ba. 2B@@@@@@@B@B@i BB@B@@@@@B@B@ :@B@r W@@@ 7@B@@ MB@B 7@@B@@@B@@@@@r .MB.
SB@BZ;. .7Z@B@2 .@BW .2. 7@B2 :2 B@B 7B@2 .@ZM@B 7@B2 .@Za .7. iBZ. ..
ZB@B. .@B@0 .@ZM272222272Z2 7BZS27222727SBi @B@ ;@B2 .@WWZ@@: 7B@2 .BMa777777772W2 .ZM2 S
:@@B B@@7 .@MBB@@@B@B@B@B 7@MB@@B@@@B@B@2 BBB 7@@2 .BZ2.Z@@7 ;BB2 .@0MB@B@B@B@B@B 2Za2 @:
W@B: .@@@ .@Ba .; 7BB7 i: @ZB ;@B2 .@Za W@B2 :BB2 .BMS .i S0SW. :B7
.ZBB ZB@. .@BW 7@B7 BZZ ;BB2 .@ZS 2@@27MZ2 .BMa rZ20W. .Z@:
7Z@a WB@. .BBW 7@@7 BZB i@Z2 .@Z0 r@ZWSZ7 .ZMa .;22227. SS20Z7 .2Z@S
;ZB0 WBB: .@ZW 7@B7 ZZZ ;ZZ7 .ZZS .ZWSM7 .BW0 .0@B@B@B@@B0S2SSaMZa277720BZBa
.MBZ @Z@ .@B0 7BB7 BMZ iBZ7 .BMS 0SZ7 .ZWS 2B2:. :2BZWSS2S2SSWWZMZWWaa;
SB@r 7BBa .@ZW 7BZ7 ZMM ;BZ7 .ZMS rMM7 .Zaa 7r 7B0SS2SSSSS2S2SS7
@Z@. iBZB. .BZa 7ZZ7 ZWM S@BM .Z0S ;WM7 .M02 ;BaSS2SSS2S2SSaSMM07.
7@B@; 2@@Bi .BMa ;ZZ7 M0a .MW2 rZ07 .MS2 0MSSSSaSSSa0ZB@@@@@B0
:ZB@BS7;;7a@@@a. .BZS 7ZZ7 Zaa7;;77772Z: :..: .Z02 ;W07 .WS2;i;;;;;7M: 7BSaSSSaSMBZ2r...:;a@@i
i2Z@@@@B@M2. 7@B@. 0@BZ :BZM@B@@@@@B@i ZB@Z 7@ZZ iWa7 ;@0MZ@BBBBB@Br SZ0SaSaaZB7 S@.
.... ..... ...:. ............. ... .... 2ZZ2 ............. iBM0Ma0aZB. 2B
i;i7 7BBB@aZ0WB; 2
.;:. :2@@@BB. BZW@ .
.7W@@@B@BB2: Z@Z@.
@B@M
W@@B
.a@BB;.
:7;i.



Imagem


Gangster Squad 2012 BRRiP x264 AC3-OFFLiNE


iMDB http://www.imdb.com/title/tt1321870


Source 1080p SPARKS - MANY THANKX


Media Info
Gangster Squad 2012 BRRiP x264 AC3-OFFLiNE.mp4
Format : MPEG-4
Format profile : Base Media
Codec ID : isom
File size : 2.25 GiB
Duration : 1h 52mn
Overall bit rate mode : Variable
Overall bit rate : 2 851 Kbps
Encoded date : UTC 2013-04-05 06:06:13
Tagged date : UTC 2013-04-05 06:06:13

Video
ID : 1
Format : AVC
Format/Info : Advanced Video Codec
Format profile : High@L4.1
Format settings, CABAC : Yes
Format settings, ReFrames : 3 frames
Codec ID : avc1
Codec ID/Info : Advanced Video Coding
Duration : 1h 52mn
Bit rate mode : Variable
Bit rate : 2 466 Kbps
Maximum bit rate : 40.0 Mbps
Width : 720 pixels
Height : 304 pixels
Display aspect ratio : 2.35:1
Frame rate mode : Constant
Frame rate : 23.976 fps
Color space : YUV
Chroma subsampling : 4:2:0
Bit depth : 8 bits
Scan type : Progressive
Bits/(Pixel*Frame) : 0.470
Stream size : 1.94 GiB (86%)
Title : Gangster Squad 2012 BRRiP x264 AC3-OFFLiNE
Writing library : x264 core 130 r2273 b3065e6
Encoded date : UTC 2013-04-05 06:06:13
Tagged date : UTC 2013-04-05 06:06:40

Audio
ID : 2
Format : AC-3
Format/Info : Audio Coding 3
Mode extension : CM (complete main)
Format settings, Endianness : Big
Codec ID : ac-3
Duration : 1h 52mn
Bit rate mode : Constant
Bit rate : 384 Kbps
Channel(s) : 6 channels
Channel positions : Front: L C R, Side: L R, LFE
Sampling rate : 48.0 KHz
Bit depth : 16 bits
Compression mode : Lossy
Stream size : 310 MiB (13%)
Title : 5.1
Language : English


Screens

Imagem

Imagem

Imagem

Imagem

Imagem

Imagem

Imagem

Imagem


Greetz

THC, PA, SN1P3R, INFERNO, HELLRAZ0R, TRiNiTY, FLAWL3SS, FraMeSToR,
many more, and all our friends



Imagem

Imagem

Imagem

Imagem

Imagem

Imagem

Imagem

Imagem


ed2k: Gangster.Squad.(2012).BRRip.x264.AC3-OFFLiNE.[TheRostrum.net].mp4  [2.25 Gb]

Gangster.Squad.(2012).BRRip.x264.AC3-OFFLiNE.rar
Não tem Permissão para ver os ficheiros anexados nesta mensagem.

Responder

Voltar para “Filmes Recentes // Recent Movies (Com Legendas/With Subtitles)”