Coffin Baby (2013) *DVDRip* - juggs

Filmes lançados em 2013 e anos seguintes. / Movies launched in 2013 and following years. (Retail DVD)

Moderador: Moderador

Responder
Avatar do Utilizador
quiZZical
eMulePoster
eMulePoster
Mensagens: 4839
Registado: 28 jul 2011, 19:30

Coffin Baby (2013) *DVDRip* - juggs

Mensagem por quiZZical » 01 abr 2013, 06:24




Synopsis
A California é aterrorizada com uma série de estranhos e terríveis assassinatos criando o caos na cidade. Uma vítima em especial é sequestrada e mantida em cativeiro tendo que presenciar toda a tortura que o assassino comete em suas vítimas até matá-las a sangue frio. Sua fuga se torna ainda mais improvável quando forças sobrenaturais entram na jogada…

An attractive young woman is kidnapped, held captive and forced to endure the evils of one of the most violent homicidal maniacs in the city‘s history. “The Toolbox Killer” aka TBK. It is by her will, strength and her faith that she must survive, the ordeal. Her escape is almost hopeless. Unfortunately her situation only worsens when outside supernatural forces become more difficult to contend with than TBK.


imdb.com
Toolbox Murders 2 (2013)

Capa
Sinopse:Hollywood, California is turned upside down by a series of strange and horrific murders creating chaos and turmoil in tinsel town. One particular victim is kidnapped, held captive and ...
Pontuação:3.1
Duração:95 minutos
Idioma:English
Realizador:Dean Jones
Actores:Bruce Dern, Brian Krause, Clifton Powell, Chauntal Lewis, Ethan Phillips
  
Fonte:http://www.imdb.com/title/tt1866251
Última Actualização:Segunda Março 12, 2018 01:39


Código: Selecionar todos

Source : DVDR NO GRP(Thanks)
 
http://www.imdb.com/title/tt1866251/

General
Complete name                            : D:\eMule\Coffin.Baby.(2013).DVDRip.XviD-juggs.[TheRostrum.net].avi
Format                                   : AVI
Format/Info                              : Audio Video Interleave
File size                                : 700 MiB
Duration                                 : 1h 32mn
Overall bit rate                         : 1 058 Kbps
Writing library                          : VirtualDub build 32842/release

Video
ID                                       : 0
Format                                   : MPEG-4 Visual
Format profile                           : Advanced Simple@L5
Format settings, BVOP                    : 4
Format settings, QPel                    : No
Format settings, GMC                     : No warppoints
Format settings, Matrix                  : Default (H.263)
Muxing mode                              : Packed bitstream
Codec ID                                 : XVID
Codec ID/Hint                            : XviD
Duration                                 : 1h 32mn
Bit rate                                 : 920 Kbps
Width                                    : 640 pixels
Height                                   : 352 pixels
Display aspect ratio                     : 16:9
Frame rate                               : 25.000 fps
Color space                              : YUV
Chroma subsampling                       : 4:2:0
Bit depth                                : 8 bits
Scan type                                : Progressive
Compression mode                         : Lossy
Bits/(Pixel*Frame)                       : 0.163
Stream size                              : 609 MiB (87%)
Writing library                          : XviD 64

Audio
ID                                       : 1
Format                                   : MPEG Audio
Format version                           : Version 1
Format profile                           : Layer 3
Codec ID                                 : 55
Codec ID/Hint                            : MP3
Duration                                 : 1h 32mn
Bit rate mode                            : Constant
Bit rate                                 : 128 Kbps
Channel(s)                               : 2 channels
Sampling rate                            : 44.1 KHz
Compression mode                         : Lossy
Stream size                              : 84.7 MiB (12%)
Alignment                                : Split accross interleaves
Interleave, duration                     : 40 ms (1.00 video frame)
Interleave, preload duration             : 500 ms
Writing library                          : LAME3.99r
Encoding settings                        : -m s -V 4 -q 3 -lowpass 17 -b 128



Imagem

Imagem

Imagem

Imagem

Imagem

Imagem


ed2k: Coffin.Baby.(2013).DVDRip.XviD-juggs.[TheRostrum.net].avi  [700.39 Mb]

Coffin.Baby.(2013).DVDRip.XviD-juggs.[TheRostrum.net].rar
Não tem Permissão para ver os ficheiros anexados nesta mensagem.

Avatar do Utilizador
arf100c
eMuleCoop
eMuleCoop
Mensagens: 7317
Registado: 08 jun 2009, 15:48

Re: Coffin Baby (2013) *DVDRip* - juggs

Mensagem por arf100c » 20 jan 2014, 19:14

Legenda Pt-Br anexada

Avatar do Utilizador
tueunos
Utilizador
Utilizador
Mensagens: 7609
Registado: 17 mai 2008, 21:31
Localização: Algures Planeta Terra

Re: Coffin Baby (2013) *DVDRip* - juggs

Mensagem por tueunos » 29 jan 2014, 00:57

Topico editado.
Imagem

"A vida é uma pedra de amolar: desgasta-nos ou afia-nos, conforme o metal de que somos feitos."

"Eu sou responsável pelo que digo, não pelo que as pessoas entendem."

Responder

Voltar para “Filmes Recentes // Recent Movies (Com Legendas/With Subtitles)”