The Wicked (2013) *BDRip* - SPLiTSViLLE

Filmes lançados em 2013 e anos seguintes. / Movies launched in 2013 and following years. (Retail DVD)

Moderador: Moderador

Responder
Avatar do Utilizador
wh0p5y
eMuleCoop
eMuleCoop
Mensagens: 5170
Registado: 14 fev 2010, 10:21
Localização: Right Here

The Wicked (2013) *BDRip* - SPLiTSViLLE

Mensagem por wh0p5y » 23 mar 2013, 01:24




Synopsis
O filme conta a história de uma bruxa que vive em uma casa assombrada numa floresta. A lenda diz ela é uma sobrevivente da caça as bruxas que ocorreu no século XVIII. Com essa história passada por gerações, acredita-se na cidade que se você jogar uma pedra e quebrar o vidro da janela da casa onde a bruxa vive… o Mal te perseguirá. A antiga lenda é relembrada quando uma menina de sete anos some de sua casa. E o rumor é que a menina quebrou a janela da bruxa na noite anterior.

It is a bedtime story nearly every kid in the small town of Summerset has heard. A silly story passed down from generation to generation that offers just enough chills to keep the legend alive. This year is different. Seven year old Amanda Drake (Caitlin Carmichael) is swiped from her bedroom window. Rumors swirl. The Witch has returned. Always up for a good fright, and a chance to impress the girls, 18 year old Zach (Justin Deeley) and his friends decide to sneak into the woods and find the mysterious old house where the legendary Witch supposedly lives. Unbeknownst to Zach, his younger brother Max (Devon Werkheiser) and Max’s “girlfriend” Sammy (Diana Hopper) sneak along. They all soon discover that folklore isn’t always myth and that bedtime stories sometimes come true. The Witch has indeed returned with the intent of casting her magical spells to deceive, hunt and ultimately consume the local children to keep her young, older ones to keep her strong and pretty ones to keep her beautiful. Zach and Max, who can’t stand each other, and their teenage friends find themselves trapped in the Witch’s lair. They must bury their differences or be buried themselves. There is no escape from “The Wicked” once the spell has been cast.


imdb.com
The Wicked (2013)

Capa
Sinopse:A Group of teenagers test the legend of an immortal witch and get more than they bargained for.
Pontuação:3.8
Duração:105 minutos
Idioma:English
Realizador:Peter Winther
Actores:Devon Werkheiser, Justin Deeley, Jess Adams, Jamie Kaler, Caitlin Carmichael
  
Fonte:http://www.imdb.com/title/tt1986994
Última Actualização:Segunda Março 12, 2018 09:10


Código: Selecionar todos

The.Wicked.2013.BDRip.XviD-SPLiTSViLLE

Resolution is 624x352
Bitrate is 802Kbps
mp3 audio is 128Kbps

http://www.imdb.com/title/tt1986994

GROUP NEWS:

MOO! MOO! MOO! MOO!

__________________________

General
Complete name                            : D:\eMule\The.Wicked.(2013).BDRip.XviD-SPLiTSViLLE.[TheRostrum.net].avi
Format                                   : AVI
Format/Info                              : Audio Video Interleave
File size                                : 700 MiB
Duration                                 : 1h 44mn
Overall bit rate mode                    : Variable
Overall bit rate                         : 932 Kbps

Video
ID                                       : 0
Format                                   : MPEG-4 Visual
Format profile                           : Advanced Simple@L5
Format settings, BVOP                    : 2
Format settings, QPel                    : No
Format settings, GMC                     : No warppoints
Format settings, Matrix                  : Default (H.263)
Muxing mode                              : Packed bitstream
Codec ID                                 : XVID
Codec ID/Hint                            : XviD
Duration                                 : 1h 44mn
Bit rate                                 : 802 Kbps
Width                                    : 624 pixels
Height                                   : 352 pixels
Display aspect ratio                     : 16:9
Frame rate                               : 23.976 fps
Color space                              : YUV
Chroma subsampling                       : 4:2:0
Bit depth                                : 8 bits
Scan type                                : Progressive
Compression mode                         : Lossy
Bits/(Pixel*Frame)                       : 0.152
Stream size                              : 602 MiB (86%)
Writing library                          : XviD 1.2.1 (UTC 2008-12-04)

Audio
ID                                       : 1
Format                                   : MPEG Audio
Format version                           : Version 1
Format profile                           : Layer 3
Mode                                     : Joint stereo
Mode extension                           : MS Stereo
Codec ID                                 : 55
Codec ID/Hint                            : MP3
Duration                                 : 1h 44mn
Bit rate mode                            : Variable
Bit rate                                 : 117 Kbps
Nominal bit rate                         : 128 Kbps
Channel(s)                               : 2 channels
Sampling rate                            : 48.0 KHz
Compression mode                         : Lossy
Stream size                              : 88.0 MiB (13%)
Alignment                                : Aligned on interleaves
Interleave, duration                     : 24 ms (0.58 video frame)
Interleave, preload duration             : 72 ms
Title                                    : english
Writing library                          : LAME3.99r
Encoding settings                        : -m j -V 4 -q 2 -lowpass 17 --abr 128



Imagem

Imagem

Imagem

Imagem

Imagem

Imagem

Imagem


ed2k: The.Wicked.(2013).BDRip.XviD-SPLiTSViLLE.[TheRostrum.net].avi  [699.96 Mb]

The.Wicked.(2013).BDRip.XviD-SPLiTSViLLE.[TheRostrum.net].zip
Não tem Permissão para ver os ficheiros anexados nesta mensagem.
Imagem
Imagem
UPLOADER

pixie
eMuleCoop
eMuleCoop
Mensagens: 435
Registado: 14 out 2011, 23:36

Re: The Wicked (2013) *BDRip* - SPLiTSViLLE

Mensagem por pixie » 23 mar 2013, 20:52

Obrigado

Avatar do Utilizador
tueunos
Utilizador
Utilizador
Mensagens: 7607
Registado: 17 mai 2008, 21:31
Localização: Algures Planeta Terra

Re: The Wicked (2013) *BDRip* - SPLiTSViLLE

Mensagem por tueunos » 30 jun 2013, 21:02

Legenda PT-BR anexada e sinopse adicionada.
Imagem

"A vida é uma pedra de amolar: desgasta-nos ou afia-nos, conforme o metal de que somos feitos."

"Eu sou responsável pelo que digo, não pelo que as pessoas entendem."

Responder

Voltar para “Filmes Recentes // Recent Movies (Com Legendas/With Subtitles)”