The Wicked (2013) *DVDRip* - juggs

Filmes lançados em 2013 e anos seguintes. / Movies launched in 2013 and following years. (Retail DVD)

Moderador: Moderador

Responder
Avatar do Utilizador
quiZZical
eMulePoster
eMulePoster
Mensagens: 4839
Registado: 28 jul 2011, 19:30

The Wicked (2013) *DVDRip* - juggs

Mensagem por quiZZical » 21 mar 2013, 23:40




Synopsis
O filme conta a história de uma bruxa que vive em uma casa assombrada numa floresta. A lenda diz ela é uma sobrevivente da caça as bruxas que ocorreu no século XVIII. Com essa história passada por gerações, acredita-se na cidade que se você jogar uma pedra e quebrar o vidro da janela da casa onde a bruxa vive… o Mal te perseguirá. A antiga lenda é relembrada quando uma menina de sete anos some de sua casa. E o rumor é que a menina quebrou a janela da bruxa na noite anterior.

It is a bedtime story nearly every kid in the small town of Summerset has heard. A silly story passed down from generation to generation that offers just enough chills to keep the legend alive. This year is different. Seven year old Amanda Drake (Caitlin Carmichael) is swiped from her bedroom window. Rumors swirl. The Witch has returned. Always up for a good fright, and a chance to impress the girls, 18 year old Zach (Justin Deeley) and his friends decide to sneak into the woods and find the mysterious old house where the legendary Witch supposedly lives. Unbeknownst to Zach, his younger brother Max (Devon Werkheiser) and Max’s “girlfriend” Sammy (Diana Hopper) sneak along. They all soon discover that folklore isn’t always myth and that bedtime stories sometimes come true. The Witch has indeed returned with the intent of casting her magical spells to deceive, hunt and ultimately consume the local children to keep her young, older ones to keep her strong and pretty ones to keep her beautiful. Zach and Max, who can’t stand each other, and their teenage friends find themselves trapped in the Witch’s lair. They must bury their differences or be buried themselves. There is no escape from “The Wicked” once the spell has been cast.


imdb.com
The Wicked (2013)

Capa
Sinopse:A Group of teenagers test the legend of an immortal witch and get more than they bargained for.
Pontuação:3.8
Duração:105 minutos
Idioma:English
Realizador:Peter Winther
Actores:Devon Werkheiser, Justin Deeley, Jess Adams, Jamie Kaler, Caitlin Carmichael
  
Fonte:http://www.imdb.com/title/tt1986994
Última Actualização:Segunda Março 12, 2018 09:10


Código: Selecionar todos

Source :DVDR iNVANDRAREN (Thanks)


http://www.imdb.com/title/tt1986994/


Format                                   : AVI
Format/Info                              : Audio Video Interleave
File size                                : 700 MiB
Duration                                 : 1h 40mn
Overall bit rate                         : 973 Kbps
Writing library                          : VirtualDub build 32842/release


Video
ID                                       : 0
Format                                   : MPEG-4 Visual
Format profile                           : Advanced Simple@L5
Format settings, BVOP                    : 4
Format settings, QPel                    : No
Format settings, GMC                     : No warppoints
Format settings, Matrix                  : Default (H.263)
Muxing mode                              : Packed bitstream
Codec ID                                 : XVID
Codec ID/Hint                            : XviD
Duration                                 : 1h 40mn
Bit rate                                 : 835 Kbps
Width                                    : 640 pixels
Height                                   : 352 pixels
Display aspect ratio                     : 16:9
Frame rate                               : 25.000 fps
Color space                              : YUV
Chroma subsampling                       : 4:2:0
Bit depth                                : 8 bits
Scan type                                : Progressive
Compression mode                         : Lossy
Bits/(Pixel*Frame)                       : 0.148
Stream size                              : 601 MiB (86%)
Writing library                          : XviD 64


Audio
ID                                       : 1
Format                                   : MPEG Audio
Format version                           : Version 1
Format profile                           : Layer 3
Mode                                     : Joint stereo
Mode extension                           : MS Stereo
Codec ID                                 : 55
Codec ID/Hint                            : MP3
Duration                                 : 1h 40mn
Bit rate mode                            : Constant
Bit rate                                 : 128 Kbps
Channel(s)                               : 2 channels
Sampling rate                            : 44.1 KHz
Compression mode                         : Lossy
Stream size                              : 92.1 MiB (13%)
Alignment                                : Split accross interleaves
Interleave, duration                     : 40 ms (1.00 video frame)
Interleave, preload duration             : 500 ms
Writing library                          : LAME3.98


Plot
A Group of teenagers test the legend of an immortal witch and get
more than they bargained for.



Imagem

Imagem

Imagem

Imagem

Imagem

Imagem

Imagem


ed2k: The.Wicked.(2013).DVDRip.XviD-juggs.[TheRostrum.net].avi  [700.37 Mb]

The.Wicked.(2013).DVDRip.XviD-juggs.[TheRostrum.net].zip

The.Wicked.(2013).DVDRip.XviD-juggs.[TheRostrum.net].zip
Não tem Permissão para ver os ficheiros anexados nesta mensagem.

pixie
eMuleCoop
eMuleCoop
Mensagens: 435
Registado: 14 out 2011, 23:36

Re: The Wicked (2013) *DVDRip* - juggs

Mensagem por pixie » 22 mar 2013, 14:25

Obrigado

Avatar do Utilizador
tueunos
Utilizador
Utilizador
Mensagens: 7609
Registado: 17 mai 2008, 21:31
Localização: Algures Planeta Terra

Re: The Wicked (2013) *DVDRip* - juggs

Mensagem por tueunos » 30 jun 2013, 21:06

Legenda PT e PT-BR anexada e sinopse adicionada.
Imagem

"A vida é uma pedra de amolar: desgasta-nos ou afia-nos, conforme o metal de que somos feitos."

"Eu sou responsável pelo que digo, não pelo que as pessoas entendem."

Responder

Voltar para “Filmes Recentes // Recent Movies (Com Legendas/With Subtitles)”