Jurassic World (2015) *2160p BluRay* - SWTYBLZ

Qualquer Resolução // Any Definition release, be it full (BD, HDDVD, HDTV stream, BDRip, HDDVDRip, HDTVRip) (a720, 720p, 1080i, 1080p)

Moderador: Moderador

Responder
Avatar do Utilizador
Lost_Rider34
Administrador
Administrador
Mensagens: 10618
Registado: 15 out 2008, 14:07
Localização: Aqui
Contacto:

Jurassic World (2015) *2160p BluRay* - SWTYBLZ

Mensagem por Lost_Rider34 » 15 jun 2018, 17:17

Imagem

O Jurassic Park, localizado na ilha Nublar, enfim está aberto ao público. Com isso, as pessoas podem conferir shows acrobáticos com dinossauros e até mesmo fazer passeios bem perto deles, já que agora estão domesticados. Entretanto, a equipe chefiada pela doutora Claire (Bryce Dallas Howard) passa a fazer experiências genéticas com estes seres, de forma a criar novas espécies. No entanto, uma delas logo adquire inteligência bem mais alta e se torna uma grande ameaça para a existência humana.

Steven Spielberg returns to executive produce the long-awaited next installment of his groundbreaking Jurassic Park series, Jurassic World. Colin Trevorrow directs the epic action-adventure based on characters created by Michael Crichton. The screenplay is by Rick Jaffa & Amanda Silver and Derek Connolly & Trevorrow, and the story is by Rick Jaffa & Amanda Silver. Frank Marshall and Patrick Crowley join the team as producers. (C) Universal


imdb.com
Jurassic World (2015)

Capa
Sinopse:A new theme park, built on the original site of Jurassic Park, creates a genetically modified hybrid dinosaur, which escapes containment and goes on a killing spree.
Pontuação:7.0
Duração:124 minutos
Idioma:English
Realizador:Colin Trevorrow
Actores:Chris Pratt, Bryce Dallas Howard, Irrfan Khan, Vincent D'Onofrio, Ty Simpkins
  
Fonte:http://www.imdb.com/title/tt0369610
Última Actualização:Segunda Março 12, 2018 07:45


Código: Selecionar todos

Video
ID                                       : 1
Format                                   : AVC
Format/Info                              : Advanced Video Codec
Format profile                           : High@L5.1
Format settings                          : CABAC / 5 Ref Frames
Format settings, CABAC                   : Yes
Format settings, RefFrames               : 5 frames
Codec ID                                 : V_MPEG4/ISO/AVC
Duration                                 : 2 h 4 min
Bit rate                                 : 42.2 Mb/s
Width                                    : 3 840 pixels
Height                                   : 1 920 pixels
Display aspect ratio                     : 2.000
Frame rate mode                          : Constant
Frame rate                               : 23.976 (24000/1001) FPS
Color space                              : YUV
Chroma subsampling                       : 4:2:0
Bit depth                                : 8 bits
Scan type                                : Progressive
Bits/(Pixel*Frame)                       : 0.239
Stream size                              : 36.7 GiB (92%)
Title                                    : Jurassic.World.2015.2160p.BluRay.x264.8bit.SDR.DTS-X.7.1-SWTYBLZ
Writing library                          : x264 core 148 r2748 97eaef2
Encoding settings                        : cabac=1 / ref=5 / deblock=1:-1:-1 / analyse=0x3:0x113 / me=umh / subme=10 / psy=1 / psy_rd=1.00:0.15 / mixed_ref=1 / me_range=48 / chroma_me=1 / trellis=2 / 8x8dct=1 / cqm=0 / deadzone=21,11 / fast_pskip=1 / chroma_qp_offset=-3 / threads=60 / lookahead_threads=5 / sliced_threads=0 / nr=0 / decimate=0 / interlaced=0 / bluray_compat=0 / constrained_intra=0 / bframes=3 / b_pyramid=2 / b_adapt=2 / b_bias=0 / direct=3 / weightb=1 / open_gop=0 / weightp=2 / keyint=250 / keyint_min=23 / scenecut=40 / intra_refresh=0 / rc_lookahead=50 / rc=crf / mbtree=1 / crf=22.0 / qcomp=0.60 / qpmin=0 / qpmax=69 / qpstep=4 / ip_ratio=1.40 / aq=1:1.00
Default                                  : Yes
Forced                                   : No

Audio #1
ID                                       : 2
Format                                   : DTS
Format/Info                              : Digital Theater Systems
Format profile                           : X / MA / Core
Codec ID                                 : A_DTS
Duration                                 : 2 h 4 min
Bit rate mode                            : Variable / Variable / Constant
Bit rate                                 : 3 072 kb/s / 3 072 kb/s / 1 509 kb/s
Channel(s)                               : Object Based / 8 channels / 6 channels
Channel positions                        : Object Based / Front: L C R, Side: L R, Back: L R, LFE / Front: L C R, Side: L R, LFE
Sampling rate                            :  / 48.0 kHz / 48.0 kHz
Frame rate                               : 93.750 FPS (512 SPF)
Bit depth                                :  / 24 bits / 24 bits
Compression mode                         :  / Lossless / Lossy
Stream size                              : 2.65 GiB (7%)
Title                                    : Jurassic.World.2015.2160p.BluRay.x264.8bit.SDR.DTS-X.7.1-SWTYBLZ
Language                                 : English
Default                                  : Yes
Forced                                   : No

Audio #2
ID                                       : 3
Format                                   : AC-3
Format/Info                              : Audio Coding 3
Codec ID                                 : A_AC3
Duration                                 : 2 h 4 min
Bit rate mode                            : Constant
Bit rate                                 : 640 kb/s
Channel(s)                               : 6 channels
Channel positions                        : Front: L C R, Side: L R, LFE
Sampling rate                            : 48.0 kHz
Frame rate                               : 31.250 FPS (1536 SPF)
Bit depth                                : 16 bits
Compression mode                         : Lossy
Stream size                              : 569 MiB (1%)
Title                                    : Jurassic.World.2015.2160p.BluRay.x264.8bit.SDR.DTS-X.7.1-SWTYBLZ
Language                                 : English
Service kind                             : Complete Main
Default                                  : No
Forced                                   : No

Text #1
ID                                       : 4
Format                                   : UTF-8
Codec ID                                 : S_TEXT/UTF8
Codec ID/Info                            : UTF-8 Plain Text
Duration                                 : 1 h 52 min
Bit rate                                 : 46 b/s
Count of elements                        : 1252
Stream size                              : 38.7 KiB (0%)
Title                                    : English-SRT
Language                                 : English
Default                                  : Yes
Forced                                   : No

Text #2
ID                                       : 5
Format                                   : PGS
Muxing mode                              : zlib
Codec ID                                 : S_HDMV/PGS
Codec ID/Info                            : Picture based subtitle format used on BDs/HD-DVDs
Duration                                 : 1 h 53 min
Bit rate                                 : 36.1 kb/s
Count of elements                        : 2989
Stream size                              : 29.4 MiB (0%)
Title                                    : English-PGS
Language                                 : English
Default                                  : No
Forced                                   : No

Text #3
ID                                       : 6
Format                                   : PGS
Muxing mode                              : zlib
Codec ID                                 : S_HDMV/PGS
Codec ID/Info                            : Picture based subtitle format used on BDs/HD-DVDs
Duration                                 : 2 h 2 min
Bit rate                                 : 21.2 kb/s
Count of elements                        : 2338
Stream size                              : 18.6 MiB (0%)
Title                                    : French-PGS
Language                                 : French
Default                                  : No
Forced                                   : No

Text #4
ID                                       : 7
Format                                   : PGS
Muxing mode                              : zlib
Codec ID                                 : S_HDMV/PGS
Codec ID/Info                            : Picture based subtitle format used on BDs/HD-DVDs
Duration                                 : 2 h 2 min
Bit rate                                 : 22.3 kb/s
Count of elements                        : 1788
Stream size                              : 19.5 MiB (0%)
Title                                    : Dutch-PGS
Language                                 : Dutch
Default                                  : No
Forced                                   : No

Text #5
ID                                       : 8
Format                                   : PGS
Muxing mode                              : zlib
Codec ID                                 : S_HDMV/PGS
Codec ID/Info                            : Picture based subtitle format used on BDs/HD-DVDs
Duration                                 : 2 h 2 min
Bit rate                                 : 24.0 kb/s
Count of elements                        : 1916
Stream size                              : 21.0 MiB (0%)
Title                                    : Danish-PGS
Language                                 : Danish
Default                                  : No
Forced                                   : No

Text #6
ID                                       : 9
Format                                   : PGS
Muxing mode                              : zlib
Codec ID                                 : S_HDMV/PGS
Codec ID/Info                            : Picture based subtitle format used on BDs/HD-DVDs
Duration                                 : 2 h 2 min
Bit rate                                 : 22.0 kb/s
Count of elements                        : 1736
Stream size                              : 19.3 MiB (0%)
Title                                    : Finnish-PGS
Language                                 : Finnish
Default                                  : No
Forced                                   : No

Text #7
ID                                       : 10
Format                                   : PGS
Muxing mode                              : zlib
Codec ID                                 : S_HDMV/PGS
Codec ID/Info                            : Picture based subtitle format used on BDs/HD-DVDs
Duration                                 : 2 h 2 min
Bit rate                                 : 21.6 kb/s
Count of elements                        : 2136
Stream size                              : 18.9 MiB (0%)
Title                                    : Norwegian-PGS
Language                                 : Norwegian
Default                                  : No
Forced                                   : No

Text #8
ID                                       : 11
Format                                   : PGS
Muxing mode                              : zlib
Codec ID                                 : S_HDMV/PGS
Codec ID/Info                            : Picture based subtitle format used on BDs/HD-DVDs
Duration                                 : 2 h 2 min
Bit rate                                 : 25.2 kb/s
Count of elements                        : 2004
Stream size                              : 22.0 MiB (0%)
Title                                    : Swedish-PGS
Language                                 : Swedish
Default                                  : No
Forced                                   : No

Text #9
ID                                       : 12
Format                                   : PGS
Muxing mode                              : zlib
Codec ID                                 : S_HDMV/PGS
Codec ID/Info                            : Picture based subtitle format used on BDs/HD-DVDs
Duration                                 : 2 h 2 min
Bit rate                                 : 27.8 kb/s
Count of elements                        : 2454
Stream size                              : 24.3 MiB (0%)
Title                                    : Russian-PGS
Language                                 : Russian
Default                                  : No
Forced                                   : No

Text #10
ID                                       : 13
Format                                   : PGS
Muxing mode                              : zlib
Codec ID                                 : S_HDMV/PGS
Codec ID/Info                            : Picture based subtitle format used on BDs/HD-DVDs
Duration                                 : 2 h 3 min
Bit rate                                 : 22.9 kb/s
Count of elements                        : 1922
Stream size                              : 20.2 MiB (0%)
Title                                    : Czech-PGS
Language                                 : Czech
Default                                  : No
Forced                                   : No

Text #11
ID                                       : 14
Format                                   : PGS
Muxing mode                              : zlib
Codec ID                                 : S_HDMV/PGS
Codec ID/Info                            : Picture based subtitle format used on BDs/HD-DVDs
Duration                                 : 2 h 2 min
Bit rate                                 : 23.0 kb/s
Count of elements                        : 2434
Stream size                              : 20.1 MiB (0%)
Title                                    : Polish-PGS
Language                                 : Polish
Default                                  : No
Forced                                   : No

Text #12
ID                                       : 15
Format                                   : PGS
Muxing mode                              : zlib
Codec ID                                 : S_HDMV/PGS
Codec ID/Info                            : Picture based subtitle format used on BDs/HD-DVDs
Duration                                 : 2 h 3 min
Bit rate                                 : 19.2 kb/s
Count of elements                        : 2452
Stream size                              : 16.9 MiB (0%)
Title                                    : Chinese-PGS
Language                                 : Chinese
Default                                  : No
Forced                                   : No

Text #13
ID                                       : 16
Format                                   : PGS
Muxing mode                              : zlib
Codec ID                                 : S_HDMV/PGS
Codec ID/Info                            : Picture based subtitle format used on BDs/HD-DVDs
Duration                                 : 2 h 2 min
Bit rate                                 : 21.8 kb/s
Count of elements                        : 2546
Stream size                              : 19.1 MiB (0%)
Title                                    : Chinese-PGS
Language                                 : Chinese
Default                                  : No
Forced                                   : No

Text #14
ID                                       : 17
Format                                   : PGS
Muxing mode                              : zlib
Codec ID                                 : S_HDMV/PGS
Codec ID/Info                            : Picture based subtitle format used on BDs/HD-DVDs
Duration                                 : 2 h 3 min
Bit rate                                 : 15.9 kb/s
Count of elements                        : 2364
Stream size                              : 14.0 MiB (0%)
Title                                    : Korean-PGS
Language                                 : Korean
Default                                  : No
Forced                                   : No

Text #15
ID                                       : 18
Format                                   : PGS
Muxing mode                              : zlib
Codec ID                                 : S_HDMV/PGS
Codec ID/Info                            : Picture based subtitle format used on BDs/HD-DVDs
Duration                                 : 2 h 2 min
Bit rate                                 : 28.8 kb/s
Count of elements                        : 2470
Stream size                              : 25.2 MiB (0%)
Title                                    : Greek-PGS
Language                                 : Greek
Default                                  : No
Forced                                   : No

Text #16
ID                                       : 19
Format                                   : PGS
Muxing mode                              : zlib
Codec ID                                 : S_HDMV/PGS
Codec ID/Info                            : Picture based subtitle format used on BDs/HD-DVDs
Duration                                 : 2 h 3 min
Bit rate                                 : 23.9 kb/s
Count of elements                        : 2392
Stream size                              : 21.1 MiB (0%)
Title                                    : Romanian-PGS
Language                                 : Romanian
Default                                  : No
Forced                                   : No

Menu
00:00:00.000                             : en:Chapter 1
00:06:59.168                             : en:Chapter 2
00:11:01.827                             : en:Chapter 3
00:18:28.440                             : en:Chapter 4
00:25:34.866                             : en:Chapter 5
00:31:20.837                             : en:Chapter 6
00:39:23.861                             : en:Chapter 7
00:44:07.853                             : en:Chapter 8
00:48:57.225                             : en:Chapter 9
00:55:51.056                             : en:Chapter 10
01:01:21.344                             : en:Chapter 11
01:09:50.561                             : en:Chapter 12
01:15:25.479                             : en:Chapter 13
01:23:51.860                             : en:Chapter 14
01:30:14.700                             : en:Chapter 15
01:36:45.424                             : en:Chapter 16
01:41:15.652                             : en:Chapter 17
01:47:35.282                             : en:Chapter 18
01:53:06.029                             : en:Chapter 19
01:55:37.555                             : en:Chapter 20


Imagem Imagem
Imagem Imagem
Imagem Imagem

phpBB [video]


LINKS:

ed2k: Jurassic.World.2015.2160p.BluRay.x264.8bit.SDR.DTS-X.7.1-SWTYBLZ.mkv  [40.00 Gb]
ed2k: Jurassic.World.2015.2160p.BluRay.x264.8bit.SDR.DTS-X.7.1-SWTYBLZ.nfo  [16.7 Kb]
ed2k: Jurassic.World.2015.2160p.BluRay.x264.8bit.SDR.DTS-X.7.1-SWTYBLZ.srt  [84.6 Kb]
Não tem Permissão para ver os ficheiros anexados nesta mensagem.
Imagem

Imagem

Responder

Voltar para “Filmes 3D, 4K e outras resoluções // Movies 3D, 4K and other resolutions (Com Legendas/With Subtitles)”