Justify (2010) *BDRip* - F0RFUN

Filmes lançados no ano de 2012 e anos anteriores. / Movies launched in the year of 2012 and previous. (Retail DVD)

Moderador: Moderador

Responder
Avatar do Utilizador
quiZZical
eMulePoster
eMulePoster
Mensagens: 4839
Registado: 28 jul 2011, 19:30

Justify (2010) *BDRip* - F0RFUN

Mensagem por quiZZical » 25 mai 2012, 19:14



Synopsis
Abby has never gotten over the tragedy of her father’s death, nor has she forgotten about the dominatrix who killed him. Determined to avenge the wrong, Abby charms her way into the life of the killer. Unfortunately she discovers that the truth may be more painful than the loss.
imdb.com
Justify (2010)

Capa
Sinopse:Abby is determined to do anything to avenge her father's murder. Posing as a dominatrix, she enters the world of sadomasochism and sexual fantasies...a perfect setup for revenge!
Pontuação:3.6
Duração:72 minutos
Idioma:English
Realizador:Insung Hwang
Actores:Rebecca Larsen, Jaret Sacrey, Elizabeth Anweis, Heather Lemire, Garrett Nichols
  
Fonte:http://www.imdb.com/title/tt1384591
Última Actualização:Segunda Março 12, 2018 10:01

Código: Selecionar todos

General
Complete name                            : Justify.2010.BRRip.XviD-F0RFUN.avi
Format                                   : AVI
Format/Info                              : Audio Video Interleave
File size                                : 700 MiB
Duration                                 : 1h 16mn
Overall bit rate mode                    : Variable
Overall bit rate                         : 1 286 Kbps
Writing application                      : VirtualDubMod 1.5.10.3 | http://www.virtualdub-fr.org || (build 2550/release)
Writing library                          : VirtualDubMod build 2550/release

Video
ID                                       : 0
Format                                   : MPEG-4 Visual
Format profile                           : Advanced Simple@L5
Format settings, BVOP                    : 1
Format settings, QPel                    : No
Format settings, GMC                     : No warppoints
Format settings, Matrix                  : Default (H.263)
Codec ID                                 : XVID
Codec ID/Hint                            : XviD
Duration                                 : 1h 16mn
Bit rate                                 : 1 152 Kbps
Width                                    : 640 pixels
Height                                   : 360 pixels
Display aspect ratio                     : 16:9
Frame rate                               : 23.976 fps
Color space                              : YUV
Chroma subsampling                       : 4:2:0
Bit depth                                : 8 bits
Scan type                                : Progressive
Compression mode                         : Lossy
Bits/(Pixel*Frame)                       : 0.209
Stream size                              : 627 MiB (90%)
Writing library                          : XviD 1.2.1 (UTC 2008-12-04)

Audio
ID                                       : 1
Format                                   : MPEG Audio
Format version                           : Version 1
Format profile                           : Layer 3
Codec ID                                 : 55
Codec ID/Hint                            : MP3
Duration                                 : 1h 16mn
Bit rate mode                            : Variable
Bit rate                                 : 121 Kbps
Nominal bit rate                         : 128 Kbps
Channel(s)                               : 2 channels
Sampling rate                            : 48.0 KHz
Compression mode                         : Lossy
Stream size                              : 65.8 MiB (9%)
Alignment                                : Aligned on interleaves
Interleave, duration                     : 24 ms (0.58 video frame)
Interleave, preload duration             : 152 ms
Writing library                          : LAME3.98r
Encoding settings                        : -m s -V 4 -q 2 -lowpass 17 --abr 128

Imagem Imagem
Imagem Imagem


ed2k: Justify.(2010).BRRip.XviD-F0RFUN.avi  [700.12 Mb]

oscarslut
Utilizador
Utilizador
Mensagens: 1
Registado: 08 jan 2019, 11:12

Re: Justify (2010) *BDRip* - F0RFUN

Mensagem por oscarslut » 08 jan 2019, 11:17

hi, how i get the link ? im new here :s

Avatar do Utilizador
MoRsE
Moderador Global
Moderador Global
Mensagens: 1797
Registado: 29 jul 2009, 02:32
Localização: Azores

Re: Justify (2010) *BDRip* - F0RFUN

Mensagem por MoRsE » 08 jan 2019, 12:52

oscarslut Escreveu:
08 jan 2019, 11:17
hi, how i get the link ? im new here :s
download the eMule program, install it and you are the first to receive the files in ed2k format.

:dead_horse:
Imagem

Responder

Voltar para “Filmes Arquivados // Filed Movies (Sem Legendas/Without Subtitles)”